<?xml version="1.0" standalone="no"?>
<!DOCTYPE svg PUBLIC "-//W3C//DTD SVG 1.1//EN" "http://www.w3.org/Graphics/SVG/1.1/DTD/svg11.dtd" >
<svg xmlns="http://www.w3.org/2000/svg" xmlns:xlink="http://www.w3.org/1999/xlink" version="1.1">
<metadata>
Created by FontForge 20201107 at Sat May  6 21:36:01 2017
 By 
Copyright (c) Active Images, 2009. All rights reserved.
</metadata>
<defs>
<font id="SVN-SupercellMagic" horiz-adv-x="1708" >
  <font-face 
    font-family="SVN-Supercell Magic"
    font-weight="400"
    font-stretch="normal"
    units-per-em="2048"
    panose-1="3 2 5 2 5 6 2 2 2 5"
    ascent="1638"
    descent="-410"
    x-height="1485"
    cap-height="1839"
    bbox="-455 -497 2739.33 2757.27"
    underline-thickness="40"
    underline-position="-271"
    unicode-range="U+000D-FB02"
  />
<missing-glyph horiz-adv-x="748" 
d="M612 0h-544v1365h544v-1365zM136 1297v-1229h408v1229h-408z" />
    <glyph glyph-name=".notdef" horiz-adv-x="748" 
d="M612 0h-544v1365h544v-1365zM136 1297v-1229h408v1229h-408z" />
    <glyph glyph-name="glyph1" horiz-adv-x="2048" 
 />
    <glyph glyph-name="glyph1" horiz-adv-x="2048" 
 />
    <glyph glyph-name="uni000D" unicode="&#xd;" horiz-adv-x="827" 
 />
    <glyph glyph-name="space" unicode=" " horiz-adv-x="827" 
 />
    <glyph glyph-name="exclam" unicode="!" horiz-adv-x="905" 
d="M129 227q6 35 39 65t79 48.5t84 29t70 15.5q47 7 120 -9t118 -42q66 -166 47 -322q-27 -48 -154.5 -79t-254 -26.5t-148.5 46.5q-34 66 0 274zM193 1937q172 21 317 25q160 6 289 -43q-107 -687 -172 -1227q-29 -8 -90 -15q-23 -3 -67.5 -7.5t-58.5 -6.5q-72 -7 -124 -8
q-60 -2 -82 4q-20 339 -16 645q4 284 4 633z" />
    <glyph glyph-name="quotedbl" unicode="&#x22;" horiz-adv-x="1183" 
d="M109 1622q207 128 426 78q0 -312 -5 -403q-9 -223 -36 -336q-55 -28 -123 -47q-69 -19 -133 -13q-7 110 -28.5 237t-61 305t-39.5 179zM666 1616q228 106 446 33q-4 -20 -16 -85t-17 -90.5t-16.5 -84.5t-18 -89t-18 -80.5t-20.5 -83t-20.5 -71.5t-23.5 -70.5t-24 -58.5
q-58 -19 -134 -33q-76 -12 -136 4q26 235 -2 709z" />
    <glyph glyph-name="numbersign" unicode="#" horiz-adv-x="1478" 
d="M125 1386q36 5 151 13q4 180 9 336q93 29 200 35q114 6 201 2q-1 -44 -2 -164.5t-4 -186.5q27 1 79.5 2.5t78.5 3.5q7 303 10 367q18 15 68 25q55 13 112 17q58 4 113 6t78 -3q2 -64 3.5 -198.5t2.5 -202.5q79 4 127 -2q9 -80 10.5 -216.5t-8.5 -215.5q-88 -9 -131 -11
q-1 -32 -1.5 -93t-2.5 -93q134 0 159 -6q9 -88 11.5 -215.5t-7.5 -216.5q-2 0 -66.5 -4t-107.5 -9q-1 -38 -3.5 -157t-4.5 -176q-93 -29 -181 -23q-98 7 -177 8v326q-32 -1 -98 -3.5t-99 -4.5q-6 -188 -10 -246q-24 -24 -172 -38q-112 -10 -182 -3q-1 76 -7 258
q-73 -7 -131 -16q-18 127 -13 261.5t24 213.5q2 0 116 6v170q-111 -8 -155 -17q-18 108 -13 260q5 137 23 211zM670 961l-6 -177q29 2 87.5 6t86.5 5v176z" />
    <glyph glyph-name="dollar" unicode="$" horiz-adv-x="1662" 
d="M100 825q0 186 34.5 370t113.5 318q73 22 136 38q78 19 191 32q-8 262 -18 383q122 50 279.5 66.5t291.5 3.5q-16 -92 -26 -232t-15 -178q27 2 108.5 9.5t115.5 10.5q90 9 166 3q11 -45 22 -147.5t4 -160.5q-164 -9 -362 -29.5t-314 -45.5q-24 -6 -42.5 -39t-18 -65.5
t24.5 -35.5q9 -2 162 -26q119 -17 217 -29q109 -13 217 -27q73 -8 163 -20q45 -107 16 -302q-28 -199 -108 -282q-171 -72 -328 -110q-1 -16 -3.5 -66t-4 -68t-4.5 -58.5t-7 -64.5t-10 -57t-14 -63q-64 -19 -229 -33q-168 -14 -235 2q-3 153 -13 334q-273 -41 -379 -49
q-34 44 -56 165q-22 122 -17 160q156 18 348.5 52t251.5 59q27 16 53.5 40t22.5 38q-5 19 -16.5 32t-34 19.5t-36.5 9.5t-47.5 5.5t-42.5 3.5q-48 6 -157.5 5.5t-218.5 4.5t-181 24z" />
    <glyph glyph-name="percent" unicode="%" horiz-adv-x="2072" 
d="M109 1804q61 67 193.5 105.5t272 41t266.5 -37t175 -117.5q8 -73 16 -229q144 243 219 362q102 7 183 5t165.5 -14.5t129.5 -22t75 -17.5q-236 -369 -528 -917q93 23 196 27.5t196 -9.5t169 -51t111 -92q14 -99 18.5 -384t-2.5 -343q-51 -74 -183.5 -115.5t-276 -42
t-275.5 41.5t-182 120q-5 54 -10 163q-4 132 -5 205q-107 -217 -266 -557q-113 -14 -236 -10t-195.5 11.5t-111.5 15.5q127 293 232 520q107 233 221 452q-182 -13 -343.5 26.5t-217.5 131.5q-7 79 -11 168t-4 205q0 73 2 203q1 82 7 155zM444 1241q49 -13 129 -12.5
t113 22.5q0 100 3 181q3 84 -13 176q-16 0 -64 4.5t-87.5 2.5t-69.5 -16q-16 -93 -17 -178t6 -180zM1376 283q48 -14 128.5 -13.5t113.5 25.5q0 97 3 180q3 84 -13 176q-45 0 -109 6q-62 7 -113 -14q-14 -94 -15 -180t5 -180z" />
    <glyph glyph-name="ampersand" unicode="&#x26;" horiz-adv-x="1613" 
d="M74 739q178 178 393 244q-97 26 -192 89t-125 134q7 72 64 184q56 111 97 148q122 36 262 70q-1 117 -6 195q-6 111 -10 163q122 50 279.5 66.5t291.5 3.5q-18 -116 -36 -363q72 6 307 6q38 -24 77.5 -120.5t34.5 -172.5q-34 -5 -124 -10q-82 -4 -184 -12
q-98 -7 -196 -24q-95 -15 -157 -42q-28 -47 -38 -82q-11 -38 5 -98q18 -7 68 -12q51 -4 107 -6q51 -2 188 -2q29 -51 44 -115.5t11 -122.5q-95 0 -263 -21q-66 -7 -131 -20q-59 -12 -81 -28q-4 -69 -2 -122q2 -42 24 -69q49 -13 110.5 -21.5t111 -13t132.5 -6.5t125 -2.5
t142 0t133 0.5q11 -73 -13.5 -166.5t-64.5 -161.5q-103 -16 -334 -24q-8 -147 -37 -252q-64 -19 -229 -33q-168 -14 -235 2q-5 185 -11 285q-238 14 -338 51q-81 103 -134 233q-54 133 -66 248z" />
    <glyph glyph-name="quotesingle" unicode="'" horiz-adv-x="753" 
d="M166 1671q256 106 502 33q-30 -144 -43.5 -204.5t-41.5 -176t-54 -193.5t-56 -139q-192 -57 -305 -28q9 66 12.5 144.5t2 165.5t-3.5 146t-7 146t-6 106z" />
    <glyph glyph-name="parenleft" unicode="(" horiz-adv-x="1032" 
d="M256 1784q87 50 247 106q159 56 363 84q27 -45 51.5 -153t24.5 -183q-46 -5 -90 -21.5t-68 -31t-71 -45.5q-16 -53 -31 -158q-28 -203 -41 -476q-22 -469 39 -584q38 -24 74 -48q46 -31 104 -38q-7 -93 -31 -190q-23 -93 -53 -132q-63 8 -145.5 32t-139.5 45.5t-151 59
t-125 49.5q-43 56 -70 182q-53 253 -45 628q5 189 22 349q19 167 54 307q34 137 82 218z" />
    <glyph glyph-name="parenright" unicode=")" horiz-adv-x="1032" 
d="M86 238q47 6 89.5 22t68.5 31t71 45q23 85 44 264t30 370q19 477 -41 584q-38 26 -74 50q-45 30 -102 36q6 100 28 189q22 91 54 135q64 -9 150.5 -34.5t131 -42t158.5 -62.5t121 -49q44 -56 69 -182q54 -251 46 -628q-5 -190 -23 -349q-18 -171 -52 -307
q-35 -142 -83 -218q-86 -50 -246 -105q-161 -58 -364 -83q-26 43 -51 152t-25 182z" />
    <glyph glyph-name="asterisk" unicode="*" horiz-adv-x="1241" 
d="M41 1483q36 40 115.5 95.5t154.5 86.5q15 -24 60 -56q53 -35 92 -63q1 36 1.5 102t2.5 95q73 16 161 18q116 2 158 2v-192l103 98q25 8 127 -35.5t164 -95.5q-75 -81 -154 -143q-81 -63 -152 -148q40 -39 95.5 -85.5t104 -92.5t106.5 -113q-1 0 -26 -21t-33.5 -27
t-34 -25t-41.5 -28t-39.5 -22t-45 -20t-42.5 -10q-21 22 -148 127q-1 -17 -3 -89t-5 -110q-26 -12 -132 -19t-151 -3q-2 29 -3.5 63.5t-2.5 80t-2 73.5q-15 -14 -47.5 -43t-52.5 -49t-31 -37q-70 -4 -150 40t-135 99q25 28 122.5 150t137.5 159q-48 46 -103.5 88.5t-96.5 76
t-74 73.5z" />
    <glyph glyph-name="plus" unicode="+" horiz-adv-x="1110" 
d="M121 997q19 3 190 9q0 113 13 389q119 20 249 23q120 3 246 1q0 -366 -2 -409q153 0 193 -9q8 -71 11.5 -188t-3.5 -188q-26 -2 -219 -9q-3 -49 -11 -175t-12 -185q-21 -8 -82 -14q-78 -8 -130 -11q-60 -4 -132 -4q-54 0 -92 2q-3 55 -12 189.5t-11 185.5
q-29 -3 -101.5 -8t-100.5 -10q-19 108 -15.5 226t21.5 185z" />
    <glyph glyph-name="comma" unicode="," horiz-adv-x="790" 
d="M51 -86q22 50 45 115t38 114t36 130.5t28.5 112.5t26.5 114t19 84q268 -4 481 -164q-83 -154 -128 -235.5t-119 -194t-132 -170.5q-67 8 -149 30q-82 21 -146 64z" />
    <glyph glyph-name="hyphen" unicode="-" horiz-adv-x="819" 
d="M127 979q44 6 122 9q79 3 165 6t163 0q79 -3 119 -9q11 -104 12 -223q2 -142 -6 -217q-145 -19 -291 -20q-149 -1 -288 -27q-18 138 -14.5 264.5t18.5 216.5z" />
    <glyph glyph-name="period" unicode="." horiz-adv-x="905" 
d="M170 254q6 34 39 62t79.5 45.5t84 27t69.5 14.5q45 9 117 -7.5t121 -41.5q65 -160 47 -307q-16 -33 -99 -59t-183 -35q-95 -11 -176.5 -1.5t-98.5 40.5q-35 54 0 262z" />
    <glyph glyph-name="slash" unicode="/" horiz-adv-x="1654" 
d="M41 -57q275 630 505.5 1076t524.5 910q154 16 313.5 -5t237.5 -44q-253 -393 -523 -907t-515 -1047q-114 -14 -237 -10t-195.5 11.5t-110.5 15.5z" />
    <glyph glyph-name="zero" unicode="0" horiz-adv-x="2002" 
d="M102 1444q26 26 72 83q79 98 89 110q117 145 163 169q31 3 69.5 6.5t92.5 8.5t89 8q172 16 306 22q152 9 311 4q157 -5 273 -28q108 -97 296 -403q12 -18 17 -27q9 -155 15.5 -360.5t7 -414.5t-10.5 -290q-67 -87 -130 -191q-61 -99 -134 -190q-216 -39 -620.5 -40.5
t-669.5 32.5q-58 60 -132.5 196.5t-111.5 237.5q-10 617 8 1067zM768 377q93 -48 236 -29t210 86q1 41 3 124t3.5 157t3.5 143q7 228 -22 479q-19 -1 -65 -2t-64.5 -1.5t-55.5 -3t-59 -6.5t-53 -10.5t-58.5 -16.5t-55.5 -23q-29 -68 -29 -432q0 -112 3 -279t3 -186z" />
    <glyph glyph-name="one" unicode="1" horiz-adv-x="995" 
d="M78 1479q1 78 19 176q19 97 40 157q171 36 359 58q221 26 360 26q0 -710 -51 -1847q-44 -27 -239.5 -39t-278.5 -4q-37 579 -27 1452q-30 0 -95 7t-87 14z" />
    <glyph glyph-name="two" unicode="2" horiz-adv-x="1556" 
d="M104 805q136 88 207 133q145 91 231 142q132 79 211 127q106 64 146 83q15 69 9 114t-36 81q-132 7 -383 -12q-135 -9 -210 -16q-77 -7 -168 -17q4 104 21.5 223t43.5 184q187 53 580 85q169 14 321.5 11.5t239.5 -20.5q97 -169 127.5 -367t30.5 -477
q-115 -111 -302.5 -235t-453.5 -279q-17 -12 -10.5 -59.5t24.5 -56.5q37 -18 187.5 -27.5t297 -8.5t248.5 3q5 -77 -7 -201t-42 -188q-211 -18 -318 -26q-164 -13 -355 -19q-167 -7 -347 1q-170 8 -297 40q-13 114 -21 233.5t-3.5 280t28.5 268.5z" />
    <glyph glyph-name="three" unicode="3" horiz-adv-x="1613" 
d="M113 336q46 5 155 17t166 19.5t141.5 22t150 35.5t122.5 49q22 29 29.5 57.5t6.5 49.5t-7 71t-7 93q-34 30 -208 43q-153 13 -256 0q-4 73 11 170q15 93 42 167q79 7 184 23q137 21 170 47q17 86 6 137q-11 53 -37 107q-58 34 -153 45q-84 9 -192 11q-97 1 -181 -3
q-73 -4 -121 -2q-4 96 35 250q36 144 76 174q218 24 375.5 26.5t327.5 -21t360 -81.5q42 -52 93.5 -196t63.5 -246q-31 -106 -123 -205.5t-188 -146.5q119 -39 232 -118q109 -77 180 -210q-19 -179 -75.5 -369.5t-125.5 -249.5q-79 -51 -242.5 -89.5t-359.5 -59.5
q-180 -22 -348 -30.5t-252 -0.5q-71 251 -51 414z" />
    <glyph glyph-name="four" unicode="4" horiz-adv-x="1900" 
d="M74 752q82 224 292 602.5t330 533.5q52 10 144 10t201 -7t207.5 -15.5t199.5 -18t141 -12.5q19 -121 26 -442q3 -146 3 -610q141 0 192 -11q10 -73 12.5 -174.5t-5.5 -177.5q-29 -4 -61 -5.5t-76.5 -2.5t-65.5 -2q-4 -96 -6 -201q-2 -104 -6 -182q-113 -32 -340 -43
t-256 18q2 27 4.5 82t3.5 76q4 75 4 223q-84 2 -189 -1q-149 -4 -240 -5q-126 -1 -249 0q-119 1 -213 14q-53 236 -53 351zM686 850q33 -15 162 -21q124 -5 166 23q4 44 5.5 121t1.5 182.5t1 161.5q0 58 -18.5 76.5t-44 1t-48.5 -59.5q-63 -106 -130 -254t-95 -231z" />
    <glyph glyph-name="five" unicode="5" horiz-adv-x="1613" 
d="M82 829q-7 218 19 522q21 234 59 468q130 40 293.5 62t343.5 26.5t324.5 1t320.5 -12.5q45 -147 39 -413q-67 -5 -343.5 -16t-400.5 -27q-29 -57 -33 -132t-6 -147q107 -22 381.5 -79.5t399.5 -82.5q66 -179 48 -400t-104 -388q-132 -72 -282 -127.5t-315 -93.5
t-296.5 -61t-310.5 -48q-18 13 -33 76q-15 67 -23 135q-10 81 -14 142q-4 60 -2 100q121 6 379 56q210 44 299 91q9 25 14 78q5 54 1 92q-31 25 -138 45t-221.5 32.5t-232 39t-166.5 61.5z" />
    <glyph glyph-name="six" unicode="6" horiz-adv-x="1810" 
d="M248 1806q171 72 589 125.5t633 40.5q20 -74 30.5 -114.5t24.5 -131.5t9 -151q-241 -27 -760 -152q-49 -72 -49 -221q92 -8 218 -21q130 -12 265 -33q137 -19 268 -51q129 -30 224 -75q10 -78 5 -213q-4 -120 -25 -264q-21 -143 -50 -255q-32 -122 -71 -190
q-247 -144 -634 -146q-179 -1 -377 37q-193 38 -368 120q-37 71 -58 207q-38 255 -19 643q11 182 30 347q20 159 50 297q30 130 65 201zM686 711q-2 -173 47 -299q90 -30 207.5 -21t140.5 37q4 17 13 46.5t15.5 52.5t13.5 54t6.5 50.5t-5.5 42.5q-35 23 -125 34t-175 10.5
t-138 -7.5z" />
    <glyph glyph-name="seven" unicode="7" horiz-adv-x="1556" 
d="M129 1878q476 70 1274 23q37 -98 60.5 -217t15.5 -187q-41 -76 -142 -275q-120 -240 -188 -377t-215 -431q-125 -248 -221 -439q-125 -12 -299.5 12.5t-274.5 71.5q126 317 352 799.5t291 644.5q-91 9 -339 -5.5t-337 -6.5q-18 199 23 387z" />
    <glyph glyph-name="eight" unicode="8" horiz-adv-x="1871" 
d="M78 682q35 45 86.5 92.5t118.5 103t94 80.5q-36 42 -144.5 150t-128.5 145q31 342 175 619q186 29 368 44q182 14 355 16q156 1 296 -10q128 -10 193 -30q76 -51 136 -166q59 -113 81 -247q-36 -127 -128.5 -252.5t-186.5 -173.5q128 -61 217 -127q161 -117 207 -256
q4 -40 -13 -122q-16 -78 -48 -166q-78 -210 -171 -314q-64 -42 -177 -68q-223 -50 -513 -44q-148 3 -272 16q-255 23 -416 77q-55 120 -92 290t-37 343zM719 369q29 -11 78.5 -16.5t84.5 -6t99 0.5t76 1q32 32 49.5 104t16 144t-22.5 106q-61 24 -187.5 20.5t-220.5 -26.5
q-17 -75 -9 -187t36 -140zM719 1229q19 -28 83 -36.5t126 -2.5t96 18q26 61 29 146.5t-21 152.5q-24 44 -129 52q-79 7 -143 -19q-16 -13 -28 -61q-12 -53 -16 -100q-5 -61 -4 -97q2 -46 7 -53z" />
    <glyph glyph-name="nine" unicode="9" horiz-adv-x="1724" 
d="M268 1839q295 73 584.5 74.5t597.5 -55.5q90 -207 138 -468.5t50.5 -488.5t-22 -411t-70.5 -265q-141 -71 -280 -120t-294.5 -81.5t-270 -50t-308.5 -42.5q-27 -3 -41 -5q-20 14 -39 69q-16 47 -34 117q-34 146 -29 218q98 5 205 23q101 17 227 46q119 29 204 55
q88 27 138 52q15 51 6 156q-65 9 -199 17q-116 7 -254 15q-132 7 -262 21q-121 13 -225 37q-23 121 -16 264q7 139 34 297q27 154 70 289q44 140 90 237zM670 1147q48 -8 182.5 -10.5t183.5 -10.5q12 89 11 172q0 83 -11 132q-249 11 -286 8q-34 -52 -57 -136
q-22 -85 -23 -155z" />
    <glyph glyph-name="colon" unicode=":" horiz-adv-x="905" 
d="M170 254q6 34 39 62t79.5 45.5t84 27t69.5 14.5q45 9 117 -7.5t121 -41.5q65 -160 47 -307q-16 -33 -99 -59t-183 -35q-94 -11 -177 -1t-98 40q-35 54 0 262zM174 1092q6 36 37 66.5t75 49.5t79.5 29.5t66.5 15.5q40 10 110.5 -8.5t114.5 -44.5q64 -165 45 -330
q-17 -36 -92 -62t-175 -38q-91 -11 -168.5 0.5t-92.5 40.5q-35 69 0 281z" />
    <glyph glyph-name="semicolon" unicode=";" horiz-adv-x="802" 
d="M14 -162q64 148 119 360q29 110 74 314q265 -4 481 -166q-67 -125 -95.5 -177.5t-86 -151t-104 -161.5t-91.5 -108q-66 7 -151 29q-78 19 -146 61zM154 1145q5 36 35.5 66t76 49t78.5 29.5t68 17.5q43 7 112.5 -11t112.5 -45q63 -164 45 -327q-23 -49 -145.5 -80.5
t-243 -26.5t-139.5 47q-34 66 0 281z" />
    <glyph glyph-name="less" unicode="&#x3c;" horiz-adv-x="1130" 
d="M98 903q132 263 243 508q23 51 105.5 232t128.5 282q143 15 293 -6t203 -43q-40 -91 -83 -186t-74 -161t-80.5 -167.5t-70 -143t-77.5 -154t-70 -138.5q154 -350 212 -479q152 -334 212 -459q-34 -4 -174 -24t-214 -28t-91 -4q-281 521 -463 971z" />
    <glyph glyph-name="equal" unicode="=" horiz-adv-x="819" 
d="M127 686q23 2 122 8q79 4 165 6t163 0q73 -1 119 -10q11 -100 12 -212q2 -144 -6 -212q-76 -9 -276 -18t-303 -27q-18 134 -14.5 256.5t18.5 208.5zM127 1335q23 2 122 8q105 6 165 7q86 2 163 0q76 -1 119 -11q9 -72 12 -211.5t-6 -214.5q-66 -7 -269.5 -15t-309.5 -28
q-17 131 -13.5 255.5t17.5 209.5z" />
    <glyph glyph-name="greater" unicode="&#x3e;" horiz-adv-x="1130" 
d="M98 -2q71 172 143.5 326t178 362t131.5 262q-16 37 -91 208.5t-119 269.5q-117 262 -212 460q34 4 174 24t214 28t91 4q291 -541 463 -971q-126 -254 -243 -509q-112 -249 -234 -513q-143 -15 -293 6t-203 43z" />
    <glyph glyph-name="question" unicode="?" horiz-adv-x="1449" 
d="M66 1378q22 115 32.5 167t34 140t53.5 170q93 50 256.5 72t325.5 16.5t306 -30.5t208 -62q13 -51 26 -131q15 -83 24 -176q10 -98 11 -182q1 -88 -12 -150q-75 -71 -192 -159t-193 -131q-32 -76 -40 -152q-8 -80 -25 -160q-39 -12 -116 -21q-60 -7 -162 -16
q-87 -6 -164 -9q-79 -3 -120 -3q-16 93 -15.5 206.5t11.5 205.5q55 55 155 124t210 128q19 97 -8 192q-57 34 -189.5 26t-250 -28.5t-166.5 -36.5zM307 256q93 107 276 121q168 12 294 -45q62 -150 41 -279q-38 -40 -120 -65q-82 -27 -178 -39q-94 -12 -179 -9
q-86 3 -126 31q-23 12 -25.5 137.5t17.5 147.5z" />
    <glyph glyph-name="at" unicode="@" horiz-adv-x="1810" 
d="M221 1722q106 66 288.5 112t392.5 63q206 18 399 13.5t323 -28.5q55 -169 78 -367q25 -202 29 -396q2 -76 2.5 -154t-2 -162t-4.5 -139t-6 -148t-5 -125q-18 -8 -78 -20q-74 -13 -133 -20q-70 -9 -136 -12q-60 -3 -87 -1q0 68 -4 100q-381 -5 -580 51q-30 55 -40 171
q-11 126 -7 254q5 138 24 265q21 129 54 199q236 102 518 95q0 26 -4 43q-1 5 -4 21t-6 26.5t-8 17.5q-60 2 -127 2q-86 0 -173 -10q-94 -11 -177 -37q-86 -27 -140 -78q-65 -172 -79.5 -499.5t34.5 -567.5q62 -36 132.5 -62.5t162 -45t149.5 -28t178 -24t165 -20.5
q11 -98 -9 -157q-17 -54 -47 -107q-68 -18 -231.5 -12.5t-337.5 33.5q-186 28 -343 74t-224 99q-55 122 -73.5 345t-3.5 483q9 170 28 309q19 146 48 264q28 115 64 180zM1067 680q36 -12 95 -1q61 11 108 11q-3 93 -5 271q-1 81 1 264q-59 -4 -89 -13t-92 -43
q-15 -82 -25.5 -168.5t-10.5 -180t18 -140.5z" />
    <glyph glyph-name="A" unicode="A" horiz-adv-x="2078" 
d="M6 -31q18 138 67 325q49 190 114 402q50 164 136 422q74 218 136 389q-31 1 -58 6q-68 18 -79 23q7 29 24.5 110t33.5 140.5t34 93.5q167 38 384 50q140 9 249 10q36 1 106 1q49 -1 145 -3q283 -9 404 -44q17 -83 93 -438t105.5 -501.5t79 -425t82.5 -523.5
q-193 -40 -488 -44h-50q-61 0 -88 1q-5 17 -17 53.5t-15.5 48.5t-12 40t-12 42.5t-9.5 40t-11 50t-11 55.5q-72 11 -165 12q-41 1 -124 1h-61q-191 -2 -310 -30q-43 -89 -63 -146t-41 -155q-108 -26 -293.5 -26.5t-284.5 20.5zM838 780q34 -7 95 -12q41 -3 81 -3q29 0 42 1
q154 6 189 16q-13 149 -48.5 331.5t-74.5 275.5q-23 56 -51 56q-4 0 -5 -1q-32 -6 -54 -55q-22 -45 -99.5 -304.5t-74.5 -304.5z" />
    <glyph glyph-name="B" unicode="B" horiz-adv-x="2105" 
d="M90 1468q2 56 6.5 117.5t8.5 101t11.5 105.5t10.5 92q254 31 489 46q142 8 294 12q65 1 193 3q73 0 109 -1q305 -5 557 -37q46 -59 101 -215t67 -267q-34 -113 -131.5 -220t-197.5 -158q128 -40 246 -127q117 -87 190 -228q-7 -77 -28 -190q-21 -112 -47 -198
q-27 -94 -62 -172q-35 -77 -76 -109q-231 -41 -336 -54q-272 -37 -422 -43q-173 -10 -352 -10q-57 0 -84 1q-212 3 -383 40q-13 99 -14 264q-1 45 -1 142q0 70 2 234q3 233 10 431q4 134 11 426h-73t-99 14zM891 491q6 -116 18 -194q30 -6 64 -6h17q159 7 247 39
q48 69 61 169q10 74 10 169q0 36 -1 55q-50 39 -183 47q-34 2 -52 2l-66 -3q-57 -4 -101 -19q-14 -105 -16 -204q0 -9 0.5 -27.5t1.5 -27.5zM893 1174q28 -7 76 -8h26q44 0 80 4q54 4 104 15q48 10 68 25q7 39 7 89v11q-2 86 -25 154t-68 101q-31 7 -69 7q-31 0 -58 -4
q-69 -9 -129 -32q-19 -292 -12 -362z" />
    <glyph glyph-name="C" unicode="C" horiz-adv-x="1679" 
d="M75 590q-3 64 -3 130q0 76 5 178q9 158 32 315q52 330 147 495q110 66 396 122.5t550 73.5q98 5 164 5q39 0 56 -1q97 -3 134 -24q11 -82 15 -174q1 -15 1 -47q0 -25 -2 -75q-3 -60 -14 -132q-72 -6 -194 -13t-188.5 -12.5t-157.5 -25t-168 -53.5q-23 -90 -45 -205
q-20 -112 -31 -235q-6 -70 -6 -135q0 -45 3 -89q8 -105 40 -168q48 -34 169.5 -51.5t242 -20t233.5 -9.5t143 -21q1 -10 1 -31q0 -47 -4 -91q-20 -274 -74 -319q-194 2 -339 8.5t-334.5 23.5t-360 53.5t-314.5 91.5q-82 114 -97 436z" />
    <glyph glyph-name="D" unicode="D" horiz-adv-x="2162" 
d="M223 1477l-145 10q0 128 28 436q156 24 390 41q220 16 450 18q48 0 72 1q185 1 376 -11q211 -13 384 -49q32 -30 61 -61.5t48.5 -56t45 -64.5t38.5 -62t43.5 -74.5t45.5 -78.5q18 -134 11 -553.5t-31 -560.5q-14 -21 -74 -112.5t-89.5 -133.5t-81.5 -105t-97 -100
q-369 -41 -662 -45q-27 -1 -80 -1q-109 0 -198 4q-321 12 -529 63q-12 138 -15 324q-2 148 -2 229q0 104 1 159q1 133 5 406q4 292 5 377zM883 446q104 -28 240 -28t218 28q69 204 74 499v41q-1 107 -9 208q-11 124 -28 199q-79 71 -242 79q-6 0 -18.5 0.5t-18.5 1.5
q-56 0 -103 -10q-69 -12 -117 -37q-3 -54 -4 -107q-3 -315 -3 -407v-217q0 -100 3 -170q5 -72 8 -80z" />
    <glyph glyph-name="E" unicode="E" horiz-adv-x="1736" 
d="M72 1522q8 209 49 376q191 42 486 57q109 6 267 8h90q118 0 176 -1q178 -3 466 -14q19 -52 21 -200v-38q0 -51 -1 -76q-1 -22 -2.5 -56.5t-1.5 -37.5q-115 -5 -207 -5q-68 0 -103 1q-21 1 -62 1q-129 0 -249 -13q-17 -26 -27 -74q-9 -41 -14 -106q0 -7 -1 -22t-1 -23
q0 -39 4 -68q6 -56 19 -92q5 -2 38 -2t100.5 1t113.5 1q67 -1 125.5 -0.5t113 -1t78.5 -7.5q7 -72 12 -160q0 -8 0.5 -24t1.5 -24q0 -54 -8 -107q-70 -8 -272.5 -10t-306.5 -25q-13 -30 -19 -81q-3 -25 -5 -76q0 -19 1 -29q5 -114 19 -193q47 -14 128 -17q83 -4 176 0
q125 4 183 5q29 0 43 1q57 0 105 -5q15 -101 16 -199v-17q0 -99 -22 -183q-393 -37 -655 -38h-37q-157 0 -300 7q-159 7 -360 31q-14 180 -20 362q-5 191 -6 388v99q0 99 2 299q4 255 7 386q-24 0 -81.5 1t-79.5 1z" />
    <glyph glyph-name="F" unicode="F" horiz-adv-x="1626" 
d="M80 1538q7 124 8 206q1 41 4 138q208 55 512 68q69 3 208 5q47 0 70 -1q366 -5 660 -27q1 -23 1 -70q0 -61 -5 -141q-7 -104 -37 -203q-75 -17 -157 -18t-165 0q-55 1 -165 5q-18 1 -54 1q-60 0 -108 -4q-19 -14 -26 -60q-8 -45 -9 -103t0 -110q2 -70 2 -79
q66 -22 296 -24h174h24q64 0 119 -5q13 -55 17 -93q4 -27 4 -59q0 -16 -1 -23q-5 -84 -31 -173q-69 -9 -274 -19t-320 -38q-1 -6 -3 -83q-1 -27 -1.5 -89.5t-0.5 -94.5q0 -65 2 -227q3 -141 7 -215q-88 -35 -281 -50q-208 -16 -345 3q-18 182 -23 405q-3 140 -2 249
q0 110 1 165q4 305 28 735q-21 0 -65 11q-49 14 -64 18z" />
    <glyph glyph-name="G" unicode="G" horiz-adv-x="1945" 
d="M97 704v32q2 240 54 493q28 131 68 235t102 186.5t138 114.5q111 49 263 81q158 33 315 53q150 21 317 32q44 3 137 9.5t135 9.5q36 -105 52 -222q14 -95 14 -168q0 -17 -2 -51q-16 -2 -175.5 -17.5t-230 -25t-187.5 -32.5t-192 -52q-61 -61 -99 -222t-42 -332v-35
q0 -54 5 -114q8 -72 22 -116q72 -28 171 -50.5t174 -26.5q44 -2 57 -2q20 0 28 1q21 73 27.5 108t3.5 76t-19 103q-57 26 -130 31q-70 4 -128 0q-8 67 -8 119q0 21 1 32q3 70 27 150q150 36 389.5 54t417.5 18q9 -166 14 -316q7 -175 12 -356q6 -242 7 -352q2 -228 2 -302
q-83 -9 -172 -13t-210.5 2.5t-205.5 29.5v123q-42 4 -203 16.5t-257 21.5q-125 14 -246 33q-120 21 -215 60q-60 26 -98.5 54t-62 58t-35.5 75t-18 93.5t-12 125.5v6q-5 82 -5 169z" />
    <glyph glyph-name="H" unicode="H" horiz-adv-x="1949" 
d="M118 799v103q2 267 4 400q4 231 7 353q5 161 6 252q102 33 359 41q70 1 130 0q134 -5 148 -25q-23 -156 -23 -323q1 -3 1 -7v-329q47 -14 113 -14h5q91 0 203 17.5t154 32.5q9 43 10 113.5t-3 188.5t-5 163q-1 19 -1 57q0 54 3 101q31 16 113 28q76 13 172 19q92 6 174 6
q81 0 118 -8q9 -110 14 -303q4 -128 4 -304v-71q-1 -184 -5 -410t-8 -377t-9 -335.5t-6 -212.5q-47 -8 -128 -11q-86 -3 -176 -3q-66 0 -168 2q-52 1 -103 4q-3 48 -3 104q0 38 1 59q1 55 5 188q2 78 2 116q0 51 -1 76q-1 91 -17 169q-42 2 -96 7q-63 5 -118 5h-22
q-76 -2 -133 -14q-60 -12 -77 -45q-9 -150 -16 -334q-2 -98 -2 -146q0 -103 4 -187q-145 -30 -296 -36q-62 -2 -92 -2q-41 0 -62 1q-66 1 -148 10q-13 91 -20 240q-7 141 -10 346q-2 190 -2 295z" />
    <glyph glyph-name="I" unicode="I" horiz-adv-x="897" 
d="M161 922v157q0 206 1 307q1 209 8 416q37 9 78 15.5t89.5 10.5t82.5 6.5t92 3.5t81.5 1h87h75.5q0 -831 -49 -1790q-46 -27 -240 -39t-279 -4q-25 440 -27 916z" />
    <glyph glyph-name="J" unicode="J" horiz-adv-x="1568" 
d="M96 95q-2 40 -2 62q0 89 15 191q26 1 106.5 4.5t112.5 5.5t100 9t110.5 17t99 28t107.5 43q24 97 34 263q12 171 12 372q0 202 -9 411q-8 209 -24 381q138 36 294 52q62 6 126 6q17 0 53 -2q93 -3 178 -21q11 -89 19 -245q5 -142 5 -278v-46q-2 -328 -18.5 -700
t-34.5 -562q-107 -71 -384 -124.5t-540 -65.5q-74 -2 -106 -2q-65 0 -110 4q-94 6 -131 24q-5 44 -13 173z" />
    <glyph glyph-name="K" unicode="K" horiz-adv-x="1912" 
d="M114 525v72q2 247 5 373q5 198 9 358q4 166 9 300t6 201q57 12 149 15q93 3 186 3q102 0 171 -4q78 -5 105 -6q0 -1 -5.5 -116t-5.5 -177q0 -167 19 -307q5 -35 32 -38h2q25 0 60 50q42 63 194 304q22 34 113 182q68 110 94 155q34 2 52 2q44 0 92 -6q52 -7 118 -19.5
t113.5 -23.5t122.5 -28t109 -25q-64 -116 -92 -165q-33 -59 -130 -234q-92 -170 -139 -255q-72 -134 -119 -227q42 -110 105.5 -228t119.5 -205t123 -201.5t111 -208.5q-57 -23 -140 -42q-85 -18 -174 -30q-148 -20 -298 -27q-113 156 -255.5 391.5t-162.5 262.5
q-18 12 -33 12q-32 0 -32 -47q7 -437 -5 -576q-60 -30 -301 -45q-43 -3 -128 -5h-40q-49 0 -70 1q-45 1 -73 8q-9 100 -14 280q-3 132 -3 276z" />
    <glyph glyph-name="L" unicode="L" horiz-adv-x="1548" 
d="M116 1471v106q2 168 7 270q51 28 318 37.5t350 -4.5q-3 -131 -7 -386q-2 -272 -2 -393v-342v-231q79 -19 167 -24q88 -4 175 0q88 4 338 35q13 -130 14 -244v-15q0 -115 -22 -229q-251 -29 -644.5 -52.5t-657.5 -2.5q-1 78 -16.5 533t-18.5 720q-1 77 -1 222z" />
    <glyph glyph-name="M" unicode="M" horiz-adv-x="2529" 
d="M83 252q6 369 24 742q17 315 20 359q15 242 19 295q13 157 16 187q167 51 463 79q113 12 214.5 15t112.5 -4q49 -151 96 -319q46 -159 111 -310q12 -27 41 -41q30 -14 55 7q34 29 149 317t140 367q68 15 166 22q103 7 220 9h33q86 0 193 -5q110 -6 185 -18
q23 -571 34 -969q14 -461 44 -979q-75 -45 -288 -52q-22 -1 -67 -1q-56 0 -114 3q-71 4 -170 13q-1 16 -14 248t-23 400t-14 186q-13 48 -38 48q-4 0 -5 -1q-27 -6 -44 -41q-26 -55 -66 -150q-50 -116 -87 -205q-92 -215 -197 -448q-56 0 -114 -3q-9 -1 -27 -1q-42 0 -88 8
q-66 117 -123.5 248.5t-127.5 316.5t-73 193q-11 29 -39 38t-45 -26q-22 -45 -38 -395q-2 -73 -4 -169t-3.5 -161t-3.5 -92q-126 -26 -254 -28h-14q-123 0 -254 16q-2 98 -2 161q0 91 1 140z" />
    <glyph glyph-name="N" unicode="N" horiz-adv-x="2117" 
d="M129 1815q21 21 214 48q69 11 185 23q155 15 364 21h29q55 0 85 -6q21 -67 47.5 -142.5t46 -128.5t55 -143.5t49.5 -125.5t57 -141t52 -128q12 -24 34.5 -34t46.5 6.5t36 63.5q3 12 6.5 148t8 311.5t7.5 243.5q194 50 384 50q76 0 142 -7q3 -302 3 -603q0 -202 -1 -303
q-1 -432 -14 -902q-441 -68 -801 -74q-200 330 -370 792q-8 22 -28.5 33.5t-41.5 7.5q-22 -4 -37.5 -23.5t-19.5 -53.5q-20 -200 -19 -434q0 -142 6 -302q-123 -33 -247 -39q-15 -1 -45 -1q-106 0 -213 22q-8 78 -15 210q-14 299 -15 635q-1 121 -1 357q0 176 3 337
q4 188 7 282z" />
    <glyph glyph-name="O" unicode="O" horiz-adv-x="2109" 
d="M109 1518q22 25 98 120.5t141 169t101 95.5q6 1 136.5 13t176.5 15t172.5 12.5t200 10t177.5 0.5t186.5 -8.5t150.5 -22.5q149 -129 329 -455q5 -73 9 -170q8 -135 14 -430q7 -390 -10 -518q-29 -40 -124 -184.5t-155 -216.5q-224 -43 -651.5 -44.5t-704.5 34.5
q-60 68 -142 213t-116 243q-2 164 -2 274q0 202 1 303q2 168 3 295q2 145 9 251zM802 886v-201q2 -97 3 -173q2 -104 2 -115q47 -24 115 -32q30 -3 61 -3q41 0 73 4q148 18 224 91q0 13 4.5 198.5t5 260t-5 223t-18.5 268.5q-24 -1 -78.5 -2t-78.5 -1.5t-68 -4.5t-72 -10.5
t-64.5 -18.5t-70.5 -29q-21 -44 -28 -255q-2 -67 -4 -200z" />
    <glyph glyph-name="P" unicode="P" horiz-adv-x="2056" 
d="M82 1495q3 95 31.5 243t29.5 165q59 15 165 25q129 12 254 16q159 7 302 8q53 1 155 1q101 0 149 -1q146 -2 263 -6q129 -5 181 -11q82 -86 140.5 -173t100 -189.5t67 -194t56.5 -231.5q-7 -81 -128 -258q-58 -87 -113 -152q-56 -68 -113 -119q-183 -58 -413 -97
t-402 -48v-44q0 -107 7 -206q5 -75 5 -134q0 -65 -4 -116q-354 -36 -592 -22q-18 123 -18 613q0 366 16 906q-66 0 -139 25zM843 1115v-13q0 -64 9 -119q7 -1 22 -1q34 0 70 4q90 8 187.5 41.5t148.5 82.5q-4 104 -27 195q-23 95 -43 133q-37 43 -155 50q-12 1 -37 1
q-30 0 -60 -3q-40 -4 -79 -13q-34 -212 -36 -358z" />
    <glyph glyph-name="Q" unicode="Q" horiz-adv-x="2101" 
d="M105 1006v43q0 107 5 232q4 105 13 247q69 75 145 174q71 93 152 180q247 45 682 56q138 3 313.5 4t192.5 2q138 -121 327 -431q30 -203 40 -580t-5 -495q-40 -54 -106.5 -159.5t-81.5 -128.5q79 -75 131 -130q-104 -153 -447 -225q-105 124 -172 217q-135 -8 -267 -9
q-131 -1 -251 0q-63 0 -385 11q-64 68 -140.5 200t-115.5 235q-28 262 -30 557zM807 481q103 -20 205 -24q-78 140 -103 248q40 44 114 64q75 20 140 30q37 -63 107 -142q0 30 1.5 95t2.5 100q2 102 0 204q-5 244 -29 363q-31 0 -102 7t-103 9q-13 1 -40 1l-74 -4
q-57 -5 -103 -27q-48 -327 -16 -924z" />
    <glyph glyph-name="R" unicode="R" horiz-adv-x="2011" 
d="M70 1456q0 102 12 218t33 194q162 53 701 53q171 0 300 -4q332 -9 477 -37q95 -84 182 -243.5t121 -338.5q17 -84 19 -178q0 -46 -4 -82q-51 -65 -124 -150q-87 -101 -167 -179q44 -74 165 -325q130 -275 136 -290q-61 -40 -255 -84q-209 -45 -325 -49
q-56 68 -103.5 133.5t-110 157.5t-95.5 139q-54 77 -78 98q-44 40 -82 23q-29 -12 -35 -49t-6 -72q1 -43 1 -128v-63q-2 -130 -5 -194q-57 -17 -145.5 -29.5t-206.5 -17t-237 9.5q-25 311 -32 741q-2 150 -2 224q0 99 1 150q1 66 2.5 187t1.5 175q-1 0 -56.5 1.5t-82.5 8.5z
M840 967q67 0 136.5 8t151.5 35t121 71q2 24 2 38q0 25 -3 53q-2 34 -8 73t-11.5 65.5t-11.5 54.5t-7 32q-20 23 -73 38t-110 21q-31 4 -68 4q-15 0 -45 -2q-55 -5 -80 -24q-10 -125 -10 -263t16 -204z" />
    <glyph glyph-name="S" unicode="S" horiz-adv-x="1699" 
d="M82 827q-2 62 -2 94q0 185 32 375q41 235 132 443q430 166 958 192q105 5 185 5q67 0 135 -3q31 -95 37 -217q5 -98 5 -170q0 -36 -1 -53q-173 -27 -350 -42q-170 -15 -349 -50q-32 -53 -43 -116.5t-14 -151.5q140 -27 396.5 -71t357.5 -63q37 -88 48 -193q6 -57 6 -115
q0 -53 -4 -94q-18 -210 -110 -386q-141 -73 -299.5 -128.5t-333 -94t-314 -61.5t-329.5 -48q-17 13 -34 79q-23 100 -39 286q-4 45 -3 73q0 20 1 27q177 8 395 50t303 85q9 28 14 79q5 49 0 91q-34 24 -144 44.5t-227 33.5t-237.5 39.5t-171.5 60.5z" />
    <glyph glyph-name="T" unicode="T" horiz-adv-x="1828" 
d="M59 1321q-2 58 -2 88q2 89 7 162q11 134 40 254q63 30 380.5 48.5t712.5 24.5q114 2 162 2h89q250 -5 311 -16q9 -88 0 -222.5t-24 -217.5q-236 -30 -435 -37q-25 -128 -48.5 -499t-25.5 -670q-2 -172 0 -215q-156 -27 -312 -51q-103 -16 -206 -15q-57 0 -104 4
q-18 209 -27 381q-9 202 -10 332q-1 53 -1 160t1 162q0 46 1.5 164t2.5 186q-47 3 -97 3h-26q-45 0 -102 -3t-97 -6.5t-102.5 -10t-87.5 -8.5z" />
    <glyph glyph-name="U" unicode="U" horiz-adv-x="1994" 
d="M122 1130v269q2 288 17 405q164 20 317 24q18 1 55 1q125 0 273 -17q-14 -197 -18 -368q-3 -137 -3 -266v-63q1 -198 23 -589q43 -21 100 -28q36 -5 73 -6q15 0 47 2q146 15 208 81q0 115 -3.5 574.5t-0.5 667.5q160 37 323 37h4q44 0 65 -1q86 0 268 2q-1 -110 -5 -339
t-6.5 -390t-3 -356t4.5 -326q-25 -81 -101.5 -205.5t-152.5 -220.5q-117 -4 -273 -12q-192 -9 -322 -14q-166 -6 -332 -6q-160 0 -302 14q-58 62 -137.5 196t-106.5 218q0 73 -5 322.5t-6 393.5z" />
    <glyph glyph-name="V" unicode="V" horiz-adv-x="1880" 
d="M70 1829q396 55 506 62q30 2 38 2q33 0 43 -7q14 -106 52 -287t81.5 -370.5t47.5 -210.5q6 -30 34 -94t46 -64q42 0 81 117q67 238 137 454q76 235 144 453q75 9 145 9q30 0 45 -1q126 -6 225 -24.5t132 -38.5q-409 -1141 -641 -1823q-229 -31 -506 -34h-34q-68 0 -126 3
q-125 357 -264 932t-186 922z" />
    <glyph glyph-name="W" unicode="W" horiz-adv-x="2678" 
d="M80 1855q148 27 300 39q40 3 83 3q111 0 235 -23q75 -404 133 -799q5 -20 29 -26q25 -4 31 10q36 96 129 417q19 67 59 213t58 205q155 13 287 20q43 2 64 1q112 0 222 -21q189 -595 244 -790q11 -27 29 -31q26 -6 40 55q3 12 5 27q50 373 90 756q95 20 195 20
q17 1 53 -1q140 -6 270 -19q-15 -363 -118 -1032q-88 -567 -151 -869q-423 -30 -806 -30q-1 6 -54 332t-69 393q-10 49 -32 64t-44 -3.5t-35 -60.5q-9 -38 -44.5 -173.5t-73.5 -286t-66 -276.5q-110 -7 -208 -12q-77 -3 -148 -3h-36q-70 1 -204.5 7.5t-165.5 7.5
q-60 274 -109.5 602t-98.5 683.5t-93 600.5z" />
    <glyph glyph-name="X" unicode="X" horiz-adv-x="1916" 
d="M47 -57q77 219 201 474q143 291 270 494q-85 126 -226.5 459.5t-182.5 501.5q335 43 453 48q23 1 64 1q30 0 72 -2q25 -53 69 -145.5t73.5 -154.5t44.5 -95q5 -18 34 -56t48 -38q34 0 53 28q13 19 29 43q25 49 116 205.5t127 222.5q63 7 134 7q20 0 66 -2
q130 -7 246.5 -24t166.5 -30q-69 -133 -149.5 -274t-136 -231.5t-146 -235.5t-130.5 -211q365 -673 523 -938q-202 -22 -355 -39q-84 -9 -155 -15q-28 -2 -48 -3q-26 0 -34 4q-50 94 -132.5 231.5t-121.5 193.5q-5 10 -20 35q-14 23 -35 23q-33 0 -53 -30q-27 -41 -29 -44
q-81 -134 -124 -205q-64 -104 -110 -215q-130 -13 -263 -9.5t-217 11t-122 15.5z" />
    <glyph glyph-name="Y" unicode="Y" horiz-adv-x="1974" 
d="M74 1872q50 3 252 19.5t278 17.5q15 1 40 1q34 0 46 -3q12 -58 46 -132q40 -89 72 -154q12 -24 35.5 -72t34.5 -70q36 -70 44 -90q4 -18 34 -57.5t50 -39.5q34 0 57 27q18 22 31 41q25 53 109.5 248.5t139.5 296.5q98 5 172 5h27q132 -1 235.5 -13t141.5 -25
q-106 -170 -321 -566q-232 -426 -334 -597q-8 -423 -19 -693q-78 -15 -145 -19q-56 -4 -127 -4h-26q-50 0 -148.5 4.5t-145.5 4.5q0 109 -2 228.5t-6 273.5t-6 229q-115 145 -328 560q-194 395 -237 579z" />
    <glyph glyph-name="Z" unicode="Z" horiz-adv-x="1556" 
d="M78 289q-4 53 0 90q112 171 194 301q31 48 64.5 101.5t73.5 117t62 98.5q95 151 178 295q79 136 126 230q-47 4 -106 4q-37 0 -54 -1q-111 -4 -163 -5q-83 -2 -163 0q-80 1 -157 18q-27 94 -33 192q-4 52 -4 120q0 27 2 83q117 5 258 20q173 18 340 25q107 5 194 5
q87 2 176 -3q187 -7 353 -53q1 -20 6 -98t7 -124q1 -27 1 -79v-38q-2 -61 -10 -105q-95 -205 -202 -388.5t-247.5 -400.5t-201.5 -319q96 -11 343 -10.5t341 -6.5q4 -39 4 -89q0 -44 -5 -101q-9 -96 -30 -195q-197 -30 -450 -37.5t-420 -1.5t-403 19q-63 193 -74 336z" />
    <glyph glyph-name="bracketleft" unicode="[" horiz-adv-x="1077" 
d="M180 1862q238 45 396 57q245 19 387 -6q31 -260 20 -357q-136 -16 -231 -20q-23 -241 -31 -592t4 -592q66 -18 159.5 -30.5t102.5 -14.5q8 -80 7 -165q-2 -101 -11 -165q-198 -20 -396 -13q-221 8 -399 26q-13 220 -17 453q-5 275 -5 499q0 278 4 490q5 281 10 430z" />
    <glyph glyph-name="backslash" unicode="\" horiz-adv-x="1456" 
d="M45 1870q29 3 118 15t149.5 19t138 12t127.5 1q105 -305 364 -908t479 -1021q-26 -3 -80.5 -10t-74.5 -9q-86 -12 -165 -21q-190 -22 -214 -16q-16 37 -77 160q-18 37 -59 118.5t-63 126.5q-26 53 -77.5 158t-62.5 128q-61 125 -134 286q-137 312 -199 465
q-136 335 -170 496z" />
    <glyph glyph-name="bracketright" unicode="]" horiz-adv-x="1077" 
d="M170 1901q194 20 396 14q212 -6 399 -25q13 -219 17 -455q5 -275 5 -498q0 -278 -4 -490q-5 -276 -10 -427q-122 -26 -255.5 -44t-280 -24t-247.5 13q-31 267 -20 359q136 16 231 20q11 113 19 275q7 154 12 317q5 162 3 317q-2 168 -7 273q-79 24 -155 32q-68 7 -107 15
q-8 80 -7 164q2 100 11 164z" />
    <glyph glyph-name="asciicircum" unicode="^" horiz-adv-x="1458" 
d="M47 831q66 199 162 429.5t197 408.5q46 9 141 14q89 5 181 6q93 1 177 -3q31 -1 73 -3t54 -2q31 -64 120.5 -247.5t158 -323.5t119.5 -240q-115 -12 -270 -33q-161 -20 -181 -10q-40 87 -101.5 203.5t-91.5 161.5q-15 49 -41 49q-27 0 -42 -25q-15 -24 -21 -36
q-32 -59 -94 -177q-51 -96 -84 -186q-101 -12 -201 -9t-165 9.5t-91 13.5z" />
    <glyph glyph-name="underscore" unicode="_" horiz-adv-x="1302" 
d="M139 434q212 10 519.5 13t510.5 -11q16 -89 22 -212q8 -156 -7 -214q-131 -8 -498.5 -17.5t-554.5 -27.5q-34 129 -27.5 259t35.5 210z" />
    <glyph glyph-name="grave" unicode="`" horiz-adv-x="790" 
d="M51 1532q221 113 488 113q1 -3 13.5 -41.5t17.5 -53t19 -55t23.5 -64t25.5 -61.5t29.5 -65.5t31 -59t34.5 -57.5q-123 -50 -299 -62q-96 66 -194 179q-89 104 -189 227z" />
    <glyph glyph-name="a" unicode="a" 
d="M63 317q5 136 37 264q33 130 80 222q49 31 140 58q89 28 202 54q172 42 463 91q-3 11 -7.5 35t-8.5 41t-8 24q-84 52 -315 61q-80 3 -161 3h-41q-68 -1 -184 -1q-1 10 -1 33q0 34 3 72q6 89 24 162.5t44 97.5q160 16 286 22q96 6 192 6q36 0 102 -2q299 -8 567 -81
q70 -89 102.5 -351t35.5 -592v-57q0 -111 -3 -215q-5 -145 -10 -219q-142 -40 -404.5 -69.5t-512.5 -35.5q-31 -1 -89 -1q-72 0 -136 3q-100 4 -171 17q-175 230 -226 358zM688 476v-18q4 -73 27 -141q36 -16 95 -16q19 0 30 1q79 5 188 15q-1 23 -3 151.5t-5 197.5
q-67 -13 -157 -26q-76 -9 -150 -46q-15 -25 -21 -62q-5 -32 -4 -56z" />
    <glyph glyph-name="b" unicode="b" horiz-adv-x="1847" 
d="M144 480v73q0 81 2 273q3 132 10 507t10 529q150 46 304 65q78 9 152 15q42 3 76 3q32 0 47 -1q-2 -49 -6 -136q-5 -89 -6 -182q-2 -126 -2 -172q0 -68 2 -106q67 13 254 23t318 9q112 -42 253 -202.5t211 -311.5q-7 -78 -26 -209q-17 -121 -42 -240q-23 -112 -56 -215
q-32 -98 -68 -128q-402 -82 -682 -97q-156 -10 -317 -10q-51 0 -76 1q-190 3 -342 40q-8 62 -12 186q-2 90 -4 286zM732 644v-41q2 -172 16 -255q28 -6 58 -6h16q131 4 220 39q61 88 65 379v49q0 61 -1 88q-43 39 -165 47q-32 2 -48 2q-31 0 -59 -3q-48 -4 -89 -19
q-8 -79 -11 -156q-2 -84 -2 -124z" />
    <glyph glyph-name="c" unicode="c" horiz-adv-x="1511" 
d="M68 471q-3 51 -3 104q2 95 5 143q12 197 55 375t106 271q75 42 243 78.5t368 59.5q121 16 240 22q60 4 125 4q27 0 73 -2q88 -5 121 -19q5 -36 13 -139q2 -32 2 -50q0 -74 -15 -153q-59 -4 -174 -10t-172 -10.5t-139.5 -21t-151.5 -44.5q-24 -88 -40 -165
q-17 -87 -28 -186q-6 -57 -6 -111q0 -24 2 -66q6 -85 37 -135q84 -46 370 -57q31 -1 87 -3t87.5 -3t69.5 -3.5t61 -5.5t34 -8q1 -9 1 -30q0 -32 -3 -70q-7 -87 -25 -160.5t-43 -91.5q-175 1 -306.5 5.5t-301.5 17.5t-323 42t-281 74q-75 91 -88 348z" />
    <glyph glyph-name="d" unicode="d" horiz-adv-x="1898" 
d="M92 375q-14 83 0 203q13 119 50 248q36 125 90 238q56 114 122 177q32 6 169.5 36t214.5 42q108 18 200 25q67 5 121 5q43 0 86 -3q0 106 16 538q59 26 138 33q57 6 116 6q30 0 45 -1q172 -6 287 -50q0 -292 1 -457v-503q-1 -254 -6 -496q-4 -226 -22 -434
q-193 -49 -475 -61q-78 -3 -156 -3q-62 0 -93 1q-214 6 -597 48q-87 75 -164 189q-90 136 -143 219zM714 594q-5 -49 -7 -104q0 -73 14 -140q74 -24 196.5 -24t217.5 24q7 15 8 88q1 33 1 106v59q-2 91 -3 177q-1 41 -4 123q-74 20 -157 20q-21 0 -30 -1q-102 -4 -186 -45
q-33 -139 -50 -283z" />
    <glyph glyph-name="e" unicode="e" horiz-adv-x="1771" 
d="M78 477q-3 49 -3 103q0 62 5 144q12 198 55 376t105 270q55 30 158 55q196 50 508 83q132 16 264 22q65 4 138 4q30 0 80 -2q95 -5 130 -19q91 -157 138 -412q21 -110 32 -242q8 -100 7 -176q0 -44 -1 -65q-57 -9 -183 -22q-133 -14 -255 -23q-138 -11 -285 -18
q-144 -7 -269 -12q8 -80 35 -121q54 -34 227 -56.5t341 -35.5t198 -25q1 -9 1 -30q0 -31 -3 -69q-7 -89 -24.5 -162.5t-42.5 -90.5q-313 0 -641 41q-348 42 -627 135q-75 91 -88 348zM711 854q15 -1 44 -1q83 -1 168 13q109 18 171 35q2 32 2 49q0 40 -4 72q-6 64 -31 113
q-20 -2 -64.5 -4t-69.5 -4.5t-68 -13t-87 -28.5q-15 -48 -35 -105q-15 -42 -26 -126z" />
    <glyph glyph-name="f" unicode="f" horiz-adv-x="1597" 
d="M108 1025q6 113 19 175q34 4 125 7q84 3 182 3q19 511 103 625q75 27 148 47.5t125.5 34t132.5 23t117 14t135 7.5t129.5 3.5t154.5 1.5q25 -17 42.5 -83.5t24.5 -150.5q3 -34 3 -65q0 -20 -1 -29q-112 -7 -238 -35q-122 -25 -216 -87q-17 -31 -31 -90q-12 -56 -21 -177
q74 -13 155.5 -14.5t142.5 1.5h20q40 0 80 -3q11 -47 16 -94q3 -33 3 -66v-16q-1 -55 -29 -174q-48 -6 -201 -21q-64 -7 -83 -10q-47 -6 -118 -21q-2 -136 -2 -223v-234q0 -144 1 -207q1 -95 3 -144q-123 -27 -300 -35q-63 -3 -122 -3h-30q-71 1 -127 9q-25 330 -25 840
q-217 -10 -303 -23q-10 46 -13 105q-3 32 -3 64q0 30 1 45z" />
    <glyph glyph-name="g" unicode="g" horiz-adv-x="1751" 
d="M68 599q-3 48 -3 97q0 59 5 134q7 117 29 237q49 257 132 381q108 57 292 94.5t381.5 51t391.5 7.5t334 -30q1 -28 3 -131q1 -100 0 -236q-1 -135 -3 -291q-2 -155 -6 -296q-5 -169 -11 -250q-8 -112 -16 -152q-80 -421 -288 -502q-96 -36 -238 -62q-149 -28 -283 -43
q-146 -18 -286 -27q-114 -7 -244 -13q-30 74 -47 175q-12 71 -12 132q0 15 2 45q10 1 77.5 6t91.5 7.5t89.5 8.5t99.5 10t91.5 12t95.5 15.5t82 18t79 22.5q34 30 60 195q-112 -5 -200 -5q-111 0 -220 6q-210 11 -391 60q-75 79 -88 323zM692 730q6 -65 37 -114
q38 -18 109 -24q49 -4 118 -4h43q13 249 13 635q-145 -18 -248 -60q-56 -199 -68 -295q-6 -45 -6 -86q0 -18 2 -52z" />
    <glyph glyph-name="h" unicode="h" horiz-adv-x="1755" 
d="M105 648v74q2 215 4 320q2 65 7 282q1 39 2.5 107.5t2.5 94.5q57 14 199 28q60 5 124 6h117q116 -2 133 -22q-20 -126 -20 -263v-265q40 -10 106 -10q6 0 9 -1q67 2 121 7q137 12 192 34q7 34 8 88.5t-2.5 153.5t-3.5 131q-1 16 -1 46q0 44 3 79q28 13 101 24
q85 12 156 16q92 5 156 5q72 0 107 -8q10 -95 13 -243q2 -142 2 -223v-78q-1 -255 -11 -633q-5 -195 -14 -433q-38 -6 -114 -9t-159 -3q-104 0 -151 1q-76 2 -94 5q-2 42 -2 69q0 38 1 59q4 97 5 151q1 77 0 153q-1 75 -15 137q-27 2 -87 6q-44 4 -102 4h-24
q-65 -1 -121 -12q-55 -10 -67 -37q-9 -111 -14 -267q-4 -134 0 -267q-119 -25 -266 -28q-22 -1 -65 -1q-101 0 -208 8q-10 63 -16 192q-5 124 -9 276q-3 118 -3 246z" />
    <glyph glyph-name="i" unicode="i" horiz-adv-x="806" 
d="M204 1618q1 47 12 101q2 13 8.5 24t17.5 20.5t21.5 17t27.5 14.5t28 11.5t30.5 10t27.5 7.5t26.5 6t20.5 5q6 1 19 1q14 0 22 -1q90 -11 137 -41q21 -48 32 -111q7 -32 7 -69q0 -28 -4 -49q-16 -37 -119 -60q-49 -10 -92 -14q-32 -4 -67 -4q-17 0 -26 1q-101 5 -117 32
q-10 18 -11 42q-2 22 -2 34q0 14 1 22zM144 688q-1 44 -1 130q0 266 11 525q75 15 181 22t167 8t178 1q0 -561 -43 -1335q-24 -13 -89 -20q-63 -7 -139 -12q-82 -5 -142 -5q-59 0 -97 2q-23 343 -26 684z" />
    <glyph glyph-name="j" unicode="j" horiz-adv-x="882" 
d="M-454 -262q-1 16 -1 49q0 71 15 156q8 0 72.5 1.5t77 2t67.5 3.5t74.5 6t66 9t74.5 14.5t66.5 20.5t74.5 27q39 137 39 650q0 532 -29 773q134 33 265 43q45 4 105 4q36 0 55 -1q79 -3 161 -17q12 -77 15 -209q3 -78 3 -164q0 -84 -1 -129q-5 -289 -25 -661
q-7 -155 -18 -283q-8 -115 -17 -193q-73 -113 -333 -187q-115 -32 -238 -50q-120 -19 -237 -25q-110 -6 -198 0q-84 6 -120 23q-7 57 -14 137zM235 1730q1 47 12 101q2 13 8.5 24t17.5 20.5t21.5 17t27.5 14.5t28 11.5t30.5 10t27.5 7.5t26.5 6t20.5 5q6 1 19 1q14 0 22 -1
q90 -11 137 -41q21 -48 32 -111q7 -32 7 -69q0 -28 -4 -49q-16 -37 -119 -60q-49 -10 -92 -14q-32 -4 -67 -4q-17 0 -26 1q-101 5 -117 32q-10 18 -11 42q-2 22 -2 34q0 14 1 22z" />
    <glyph glyph-name="k" unicode="k" horiz-adv-x="1722" 
d="M103 513v69q2 266 4 398q1 51 3.5 183.5t4.5 199.5q8 307 8 315q5 136 6 192q51 10 134 12q37 1 112 1h56q164 -1 247 -9q-8 -138 -8 -437q0 -343 16 -448q5 -28 28 -29h2q23 0 56 39q76 101 174 244q40 58 109 157.5t78 112.5h27q42 0 100 -5q115 -12 417 -76
q-36 -55 -83 -132q-31 -51 -117 -188q-12 -19 -56.5 -91.5t-68.5 -112.5q-66 -111 -105 -181q47 -111 122.5 -227.5t158.5 -235t131 -211.5q-41 -14 -126 -32q-75 -15 -157 -24q-102 -11 -268 -26q-101 127 -228 314t-147 211q-17 10 -31 10q-28 0 -28 -37q0 -17 1.5 -125
t0.5 -192t-6 -144q-31 -15 -107 -22q-86 -10 -166 -14q-98 -5 -167 -5q-76 0 -111 8q-8 84 -13 253q-4 132 -3 285z" />
    <glyph glyph-name="l" unicode="l" horiz-adv-x="905" 
d="M157 1498v104q2 161 7 245q29 15 155 24t259 8h39q49 0 72 -1q14 0 75 -4q-4 -248 -4 -262q-4 -295 -4 -756v-380v-303v-169q-22 -2 -61 -6.5t-55 -6.5q-46 -5 -102 -6h-23q-49 0 -111 3q-43 2 -216 10q-2 80 -6 222q-2 55 -4.5 171.5t-3.5 144.5q-4 176 -9 366
q-6 259 -7 370q-1 79 -1 226z" />
    <glyph glyph-name="m" unicode="m" horiz-adv-x="2275" 
d="M76 -39q-1 33 -1 110q0 82 1 129q4 265 22 594q1 16 16 287q3 46 17 235q7 94 14 148q144 44 417 66q248 20 294 12q46 -129 87 -258t99 -246q10 -26 37 -36t51 6q12 9 39 60.5t61.5 125.5t64.5 142.5t60 136t36 81.5q59 14 149 20q79 6 198 8h34q95 0 168 -4
q100 -4 165 -15q19 -386 33 -775q14 -386 39 -786q-78 -34 -260 -39q-15 -1 -46 -1q-65 0 -117 4q-86 5 -152 9q-13 184 -23 362q-18 289 -23 304q-13 43 -40 38q-25 -4 -37 -32q-32 -62 -147 -299t-169 -346q-70 0 -104 -1h-11q-49 0 -92 7q-24 38 -48.5 82t-43 79
t-43 86.5t-37 78.5t-36 82t-30 70.5t-29 71t-23.5 56.5q-11 23 -35 30t-41 -19q-24 -43 -34 -317q-9 -217 -9 -337q-117 -20 -229 -21h-18q-100 0 -224 11z" />
    <glyph glyph-name="n" unicode="n" horiz-adv-x="1904" 
d="M115 1452q31 27 360.5 56.5t429.5 11.5q28 -78 66.5 -171.5t62 -147t79 -175.5t69.5 -152q9 -21 29.5 -27.5t42.5 7.5t32 47q2 16 5 79q4 88 5 160q1 59 5 182q5 92 6 142q120 28 235 35q118 7 238 0q3 -240 3 -482q0 -161 -1 -241q-1 -325 -13 -723q-417 -55 -720 -61
q-167 245 -334 635q-11 24 -36.5 32.5t-49.5 -8t-29 -53.5q-14 -130 -17 -268q-1 -22 -1 -68q0 -108 8 -250q-110 -28 -222 -33q-13 -1 -40 -1q-96 0 -193 16q-21 156 -28 677q-4 504 8 781z" />
    <glyph glyph-name="o" unicode="o" horiz-adv-x="1802" 
d="M92 1196q19 19 84.5 90.5t120.5 126t86 74.5q61 4 226 17q134 12 275 18q95 4 211 4h69q136 -1 245 -23q79 -62 150 -160q56 -74 133 -184q7 -99 11 -208q6 -166 7 -251q1 -57 1 -161v-73q-1 -108 -9 -159q-21 -26 -104 -136.5t-134 -168.5q-101 -19 -247 -26
q-149 -9 -311 -9q-173 0 -323 7q-151 6 -280 20q-52 52 -121 161.5t-98 184.5q-2 83 -2 441q0 197 10 415zM690 356q46 -21 100 -25q34 -2 51 -2q31 0 63 3q123 13 190 67q2 60 4.5 185t3.5 156q1 17 1 52q0 166 -22 332q-23 -1 -79 -2t-80.5 -2.5t-66 -6t-75 -14.5
t-67.5 -26q-11 -22 -17.5 -91.5t-8 -165.5t-1 -179.5t2 -173t1.5 -107.5z" />
    <glyph glyph-name="p" unicode="p" horiz-adv-x="1851" 
d="M166 1505q46 13 143 24q175 20 468 22q131 1 255 0q259 -2 381 -15q140 -156 206 -318.5t124 -431.5q-5 -38 -36 -105q-29 -61 -79 -141q-117 -180 -205 -255q-168 -52 -375 -90t-358 -48q0 -65 4 -202.5t5 -184.5v-26q0 -50 -3 -96q-323 -37 -532 -23q-21 677 -21 989
q-3 615 23 901zM731 573q7 -1 24 -1q29 0 58 4q85 13 171 50.5t132 94.5q-5 126 -25 231q-19 105 -38 158q-32 48 -141 57q-26 2 -39 2q-24 0 -48 -3q-41 -4 -71 -17q-1 -11 -11.5 -105t-14.5 -155q-12 -183 3 -316z" />
    <glyph glyph-name="q" unicode="q" horiz-adv-x="1847" 
d="M94 639q6 80 23 208q19 130 43 239q23 106 58 215q32 97 67 133q10 2 123.5 21t184.5 30t182 24t192 17q167 10 339 10h54q186 -1 344 -41q8 -67 11 -186q6 -240 1 -630q-2 -213 -9.5 -591t-8.5 -444q-101 -32 -225.5 -55t-231.5 -28q-41 -3 -74 -3q-19 0 -49 2
q4 39 7 135q2 64 4 188t3 169v34q0 53 -4 72q-57 -13 -257 -26q-110 -6 -168 -7q-114 -2 -146 -2q-74 29 -167.5 117t-172.5 196t-123 203zM757 743v-49q0 -61 1 -88q41 -36 164 -45q30 -2 47 -2q31 0 59 3q51 4 90 20q10 72 12 156q5 83 0 163q-5 183 -16 254
q-75 13 -152.5 2.5t-142.5 -35.5q-28 -47 -44 -153t-18 -226z" />
    <glyph glyph-name="r" unicode="r" horiz-adv-x="1798" 
d="M127 772q-1 46 -1 134q0 68 2 188q3 161 10 264q8 119 20 160q94 26 352 33q57 2 244 0q488 -14 667 -44q127 -108 206 -272q41 -84 65 -191q16 -70 15 -144q0 -33 -3 -66q-38 -46 -114 -124q-75 -78 -154 -147q27 -39 66 -112q41 -72 86 -154q49 -89 80 -149
q28 -53 46 -91q-65 -33 -239 -69.5t-297 -40.5q-51 56 -95.5 111t-101 128.5t-90.5 116.5q-51 64 -75 82q-38 28 -73 16q-27 -11 -33 -41q-5 -35 -4 -57q0 -231 -4 -317q-85 -23 -227 -33.5t-321 2.5q-6 67 -12 198q-10 252 -15 619zM713 774q100 0 212.5 23t166.5 73
q2 22 2 33q0 12 -2 40q-5 51 -35 185q-38 38 -171 51q-30 3 -59 3q-15 0 -45 -2q-50 -5 -73 -19q-9 -89 -8.5 -205.5t12.5 -181.5z" />
    <glyph glyph-name="s" unicode="s" horiz-adv-x="1529" 
d="M74 664q-2 54 -2 82q0 149 28 292q36 187 119 355q380 129 863 152q83 4 185 4q69 0 103 -1q27 -79 33 -175q5 -78 5 -135q0 -28 -1 -42q-92 -13 -303 -34.5t-326 -41.5q-21 -29 -32.5 -68.5t-14 -68t-4.5 -76.5q158 -28 678 -108q32 -69 43 -153q6 -46 6 -93
q0 -42 -4 -75q-17 -177 -98 -312q-237 -110 -512 -166t-637 -96q-19 11 -32 61q-13 51 -21 111q-8 54 -13 118q-3 38 -3 61q0 14 1 19q215 17 352 40q191 34 277 69q8 25 12 63q5 39 0 72q-30 21 -129 38t-204.5 27t-214 31t-154.5 50z" />
    <glyph glyph-name="t" unicode="t" horiz-adv-x="1609" 
d="M37 934q-2 50 -2 76q0 50 5 122q9 103 38 205q63 27 405 45q0 235 11 492q175 34 594 31q0 -67 -2.5 -257t-2.5 -253h91h92h80t77 -1t60 -2.5t51.5 -4t30.5 -5.5q8 -71 0 -177.5t-21 -172.5q-77 -9 -254.5 -19t-208.5 -12q-14 -65 -20 -181q-6 -120 -9 -262
q-2 -142 -2 -214v-72q2 -146 3 -254q-155 -20 -279 -40q-96 -14 -178 -13q-56 0 -100 4q-17 169 -24 286q-8 117 -9 223q-1 35 -1 107q0 73 1 109q2 146 2 258q-62 5 -112 5q-58 0 -105 -4q-134 -11 -211 -19z" />
    <glyph glyph-name="u" unicode="u" horiz-adv-x="1777" 
d="M110 1048v70q2 244 15 326q147 18 285 21h40q120 0 257 -15q-11 -145 -16 -295q-4 -100 -4 -217v-46q1 -207 22 -472q40 -14 90 -20q24 -3 73 -5q22 0 34 1q119 7 188 63q0 75 -5 508t1 485q150 29 293 29q163 0 300 4q-1 -29 -5 -208t-5 -258t-3 -223t-1 -249t4 -191
q-21 -65 -89 -163t-140 -179q-77 -1 -240.5 -7.5t-295.5 -11.5t-293.5 -4.5t-276.5 9.5q-53 53 -123.5 159t-93.5 173q0 70 -6 352q0 34 -1.5 106.5t-2.5 111.5q-1 49 -1 146z" />
    <glyph glyph-name="v" unicode="v" horiz-adv-x="1691" 
d="M61 1464q135 15 154 17q10 1 164 19q76 7 137 12q6 0 17.5 0.5t16.5 1.5q28 0 40 -5q13 -80 34 -175t48 -206q26 -102 48 -189q31 -120 32 -124q7 -25 31.5 -75.5t39.5 -49.5q27 0 48.5 31t27.5 59q50 170 122 364q61 165 130 361q80 8 144 8h27q107 -3 197 -18.5
t123 -30.5q-60 -154 -267 -671.5t-310 -788.5q-398 -36 -598 -24q-57 146 -120 342q-65 208 -119 407q-58 216 -101 403q-45 194 -66 332z" />
    <glyph glyph-name="w" unicode="w" horiz-adv-x="2410" 
d="M72 1485q119 17 270 29q40 3 82 3q100 0 203 -18q31 -140 121 -639q3 -16 25.5 -21t27.5 9q36 78 117 335q11 35 49.5 159.5t56.5 173.5q119 11 259 16q15 1 44 1q106 0 213 -17q22 -65 100 -287t119 -346q7 -16 18.5 -24t26 6t21.5 59q34 218 82 604q90 17 183 17
q26 0 39 -1q127 -5 243 -16q-11 -211 -61 -540t-93.5 -552.5t-87.5 -427.5q-276 -22 -725 -22q-4 16 -51 271t-60 306q-15 57 -45 57h-4q-32 -4 -49 -57q-95 -310 -168 -586q-322 -23 -686 -2q-71 282 -150.5 799t-119.5 711z" />
    <glyph glyph-name="x" unicode="x" horiz-adv-x="1724" 
d="M41 -45q69 168 187 385t239 391q-43 54 -95 149q-45 81 -110 215q-54 112 -100 226q-42 105 -64 176q292 34 406 41q71 5 125 0q48 -92 97 -182q54 -99 71 -137q6 -17 31 -45.5t42 -28.5q29 0 47 21q21 24 27 34q18 34 55.5 93t88 134t75.5 115q64 6 131 6q34 0 50 -1
q217 -4 370 -42q-63 -107 -135.5 -219.5t-122 -184.5t-130 -188.5t-118.5 -171.5q241 -403 471 -749q-432 -42 -459 -43q-60 -4 -73 0q-81 141 -227 342q-8 8 -20 26q-10 19 -32 19q-29 0 -47 -23q-22 -27 -26 -34q-10 -15 -50 -72.5t-63 -91.5q-60 -91 -98 -174
q-90 -9 -180 -9h-17q-86 0 -145 4q-165 8 -201 19z" />
    <glyph glyph-name="y" unicode="y" horiz-adv-x="1777" 
d="M66 1497q299 25 478 31q13 1 36 1q30 0 41 -3q19 -68 107 -230q94 -169 101 -186q5 -16 31.5 -46t44.5 -30q31 0 51 21q22 23 27 35q27 49 102 201.5t123 230.5q80 7 162 7h20q236 -3 336 -32q-89 -128 -293 -460.5t-296 -469.5q-1 -55 -17 -553q-58 -12 -135.5 -16.5
t-125.5 -4t-148.5 4t-122.5 4.5q0 218 -13 584q-117 135 -295 448q-174 315 -214 463z" />
    <glyph glyph-name="z" unicode="z" horiz-adv-x="1400" 
d="M70 232q-4 41 0 71q92 122 176 240q102 143 179 254q76 109 159 235q72 109 114 185q-63 3 -127 3q-88 0 -163 -4q-52 -2 -78 -2q-108 0 -209 15q-25 78 -31 155q-4 41 -4 95q0 21 2 67q88 6 232 18q123 12 306 20q163 8 333 0q170 -7 319 -42q7 -112 10 -179
q1 -48 0 -94q-1 -41 -8 -83q-67 -127 -148 -256.5t-139.5 -213.5t-153.5 -216t-143 -201q29 -4 70 -6t69.5 -2t88 0.5t81.5 0.5q250 0 306 -5q4 -32 4 -71q1 -40 -5 -83q-11 -82 -28 -153q-69 -10 -148 -16.5t-143 -10.5t-157 -5t-144 -1.5t-154 2t-136.5 3.5t-140.5 4.5
t-122 4.5q-53 127 -67 271z" />
    <glyph glyph-name="braceleft" unicode="{" horiz-adv-x="1032" 
d="M94 950q46 38 76 70q78 82 84 147q10 83 -7 170q-6 33 -17 90.5t-14 71.5q-15 80 -14 145q2 69 44 117q90 102 253 147q161 46 367 70q34 -64 63 -148t29 -151q-145 -16 -235 -135q-16 -19 -7 -72q8 -43 26 -115q17 -61 25 -91.5t15.5 -82t3.5 -89.5q-4 -47 -73 -97
q-28 -23 -70 -47q40 -52 62 -84q61 -92 61 -127q0 -46 -11 -99.5t-20.5 -82t-29.5 -83.5q-33 -99 -34 -126q0 -22 9 -35q22 -31 82 -64.5t117 -45.5q-7 -94 -31 -184q-22 -83 -53 -125q-131 17 -305 81t-277 129q-53 32 -32 208q5 40 23.5 160t24.5 187q6 58 -63 179
q-36 60 -72 112z" />
    <glyph glyph-name="bar" unicode="|" horiz-adv-x="1175" 
d="M106 1870q204 13 490 13q388 4 481 -9q14 -84 20 -216.5t-7 -217.5q-9 -1 -193 -10q-7 -466 -31 -1018q64 0 97 -1q58 -2 79 -5q13 -78 18 -201t-7 -199q-108 -8 -440.5 -15.5t-487.5 -25.5q-26 115 -21.5 239.5t27.5 194.5q16 0 85.5 4.5t98.5 4.5q-9 288 -10 504
q-2 297 2 495q-52 0 -209 -14q-29 125 -23.5 262.5t31.5 214.5z" />
    <glyph glyph-name="braceright" unicode="}" horiz-adv-x="1032" 
d="M80 211q73 10 134 45.5t101 89.5q8 11 9.5 29t-3 45.5t-10 51t-15.5 62.5q-3 10 -15.5 59t-18.5 76q-16 69 -10 130q6 46 76 98q32 25 69 45q-42 53 -61 82q-64 97 -64 129q1 65 21.5 141.5t40.5 124t30.5 97t-6.5 61.5q-22 31 -83 68t-113 43q6 100 28 183q22 84 54 128
q133 -20 307.5 -84t273.5 -129q25 -14 34.5 -51.5t5 -98t-13.5 -119t-22.5 -144t-19.5 -142.5q-4 -30 17 -80q22 -49 48 -96q31 -54 70 -113q-46 -38 -76 -70q-78 -88 -84 -147q-5 -16 -2.5 -56t3 -56.5t7 -56.5t9.5 -55.5t10.5 -54.5t10.5 -53q17 -78 15 -146t-44 -116
q-43 -50 -105 -86.5t-151 -61t-165.5 -38.5t-199.5 -31q-92 178 -92 297z" />
    <glyph glyph-name="asciitilde" unicode="~" horiz-adv-x="1454" 
d="M78 1120q46 110 101.5 215t128 201.5t134.5 130.5q52 31 111 13q59 -17 121 -56q27 -17 120 -81.5t146 -92.5q47 -26 94 2q45 26 84 68q44 51 84 118q140 -87 191 -196q-7 -11 -44.5 -74t-69.5 -114.5t-82.5 -122.5t-92.5 -119t-88.5 -81t-81.5 -30q-57 7 -140 46
q-80 37 -153 81q-69 41 -133 72q-59 30 -82 18q-54 -31 -154 -184q-147 80 -194 186z" />
    <glyph glyph-name="uni00A0" unicode="&#xa0;" horiz-adv-x="819" 
 />
    <glyph glyph-name="exclamdown" unicode="&#xa1;" horiz-adv-x="905" 
d="M113 -6q78 501 172 1227q178 23 213 26q176 16 209 4q23 -330 17 -643q-5 -355 -5 -637q-167 -20 -318 -23q-156 -3 -288 46zM225 1901q19 35 100.5 62.5t179.5 37.5q95 11 177.5 0.5t99.5 -41.5q37 -65 0 -277q-7 -35 -39.5 -64.5t-77.5 -47t-83.5 -28t-73.5 -15.5
q-77 -19 -236 51q-65 165 -47 322z" />
    <glyph glyph-name="cent" unicode="&#xa2;" horiz-adv-x="1589" 
d="M248 1509l33 11t35 11.5t32.5 9.5t40 10.5t41.5 9t54 10t61 8.5q-7 244 -19 383q122 50 279 66.5t293 3.5q-16 -96 -27.5 -245t-13.5 -165q37 4 98 10.5t81 8.5t69 5.5t63 2t62 -1.5q11 -42 21 -146t3 -162q-55 -3 -118 -11.5t-140 -23t-123 -24t-135 -29.5t-107 -24
q-34 -66 -56 -164t-19 -208.5t39 -182.5q35 -15 111 -28q68 -11 179 -25l198 -21q67 -7 167 -16q3 -53 -19 -171t-55 -157q-41 3 -137.5 6t-181.5 16q-4 -63 -4 -139q0 -32 -2 -178q-73 -20 -240 -24t-231 14q-8 30 -14 63t-10 56.5t-7 64.5t-4.5 58.5t-4 68.5t-3.5 66
q-35 9 -108 18.5t-106 16.5q-127 29 -196 85q-24 102 -26 259q-1 149 17 307q21 164 53 289q35 137 77 208z" />
    <glyph glyph-name="sterling" unicode="&#xa3;" horiz-adv-x="1556" 
d="M111 453q130 193 134 200q53 81 79 117q-28 -3 -68.5 -6t-64 -5.5t-39.5 -6.5q-33 200 4 370q9 2 24.5 3.5t40.5 2.5t49 1.5t63 1.5t70 2q-51 39 -114 90q-57 48 -121 90q3 25 10.5 92t12.5 108q13 108 49 218q285 102 601 144q317 42 615 30q18 -56 27 -131.5t10.5 -128
t1.5 -136.5q-76 -11 -192 -26t-209.5 -28.5t-192.5 -31.5q-33 -51 -33 -109t19 -89q82 -25 142 -37.5t149 -24t153 -22.5q8 -72 9 -160t-9 -160q-22 -2 -65.5 -14.5t-108 -23.5t-145.5 -11q-48 -66 -114 -166q-57 -87 -140 -190q117 -4 214 0t218.5 1.5t210.5 -16.5
q46 -144 37 -376q-40 -2 -251.5 -20.5t-356.5 -26.5t-354.5 2t-360.5 49q-1 28 -6 96.5t-7.5 116t-0.5 108.5t10 103z" />
    <glyph glyph-name="yen" unicode="&#xa5;" horiz-adv-x="1880" 
d="M63 1927q78 20 217 32q192 16 373 1q23 -72 54.5 -152.5t55.5 -136.5t64 -145t60 -135q6 -12 28 -45q21 -29 54 -29q22 0 36 23q11 19 17 38q17 47 41 100q22 51 67 159q25 58 73 176q44 110 61 151q16 4 76 3q71 -2 141 -7q63 -5 188.5 -15.5t142.5 -11.5
q-57 -111 -129 -267q-71 -154 -147 -327q79 0 143 -10q11 -100 12 -211q2 -151 -5 -211q-39 -6 -88.5 -10t-80.5 -5.5t-95.5 -3.5t-86.5 -3q-57 -128 -92 -199q347 12 436 -6q9 -77 12 -211t-5 -211q-122 -15 -233 -16q-121 -2 -236 -15l-13 -250q-43 -27 -266.5 -41
t-304.5 -6q-1 20 -6 136t-9 180q-29 -2 -136 -5.5t-175 -9.5t-133 -18q-18 135 -14.5 256.5t18.5 208.5q66 7 195 11t235 1v45q-37 55 -94 154q-225 -6 -340 -27q-18 134 -14.5 256.5t18.5 208.5q42 2 119 6q-71 164 -133 320q-61 158 -101 274z" />
    <glyph glyph-name="section" unicode="&#xa7;" horiz-adv-x="1662" 
d="M272 1868q176 49 590 96.5t613 40.5q12 -58 22.5 -157t3.5 -158q-113 -6 -361 -41q-231 -30 -358 -50q-30 -28 -39.5 -71.5t7.5 -85.5q91 -19 365 -57.5t433 -57.5q50 -186 50 -404t-38.5 -405t-103.5 -338q-425 -168 -1200 -237q-31 40 -54 169q-22 129 -18 164l126 16
q127 17 183 25.5t158 24t160 28.5t82 25q20 8 34.5 34.5t5 52.5t-51.5 30q-54 9 -97 14q-56 9 -112 15q-378 33 -553 82q-24 130 -23.5 316.5t21 365.5t61.5 335.5t94 227.5zM647 901q73 -28 195 -42.5t196 -14.5q17 59 19 94t-13 84q-35 0 -94.5 9t-158.5 27.5t-125 22.5
q-27 -56 -30 -92t11 -88z" />
    <glyph glyph-name="dieresis" unicode="&#xa8;" horiz-adv-x="1339" 
d="M141 1470q5 33 24 62t40.5 46t55.5 33.5t51.5 22.5t45.5 15q36 8 93 -12t94 -48q54 -196 37 -360q-20 -54 -121.5 -89t-201.5 -30.5t-118 49.5q-14 62 -12 153.5t12 157.5zM809 1475q7 50 46.5 88.5t78 55t74.5 23.5q36 8 87 -11q54 -20 85 -44q50 -173 34 -344
q-13 -38 -75 -67q-60 -27 -130 -39q-72 -11 -129 -1q-59 11 -71 46q-13 36 -11 142q1 37 11 151z" />
    <glyph glyph-name="copyright" unicode="&#xa9;" horiz-adv-x="2101" 
d="M123 1493q63 70 145 175q73 94 152 179q254 46 682 57q136 3 310.5 3.5t195.5 1.5q134 -117 327 -430q30 -200 40 -579.5t-5 -493.5q-28 -40 -116.5 -180.5t-145.5 -211.5q-182 -24 -362 -34q-190 -10 -371 -12q-180 -1 -334 3q-153 4 -250 9q-64 67 -140.5 199.5
t-115.5 234.5q-28 248 -29.5 557t17.5 522zM573 322q108 -36 233 -58q129 -22 264 -25q129 -3 251 11q119 14 195 51q34 150 45 324q10 174 0 346q-9 166 -35 332q-26 163 -60 286q-107 29 -238 39q-125 10 -258 2q-124 -7 -228 -35q-100 -25 -144 -69q-52 -87 -77 -243
q-24 -150 -29 -333q-3 -173 17 -346q21 -171 64 -282zM698 1354q252 134 641 139q21 -16 37.5 -94.5t16.5 -143.5q-8 -5 -28 -10.5t-39 -9.5t-54.5 -11.5t-55.5 -11.5q-151 -32 -196 -65q-33 -68 -33.5 -218.5t27.5 -250.5q50 -27 111.5 -36.5t162 -10.5t137.5 -4
q10 -77 7 -150q-3 -75 -7 -104q-103 -25 -388.5 12.5t-381.5 95.5q-38 66 -50.5 190.5t-2.5 265.5q7 129 34.5 246.5t61.5 170.5z" />
    <glyph glyph-name="ordfeminine" unicode="&#xaa;" horiz-adv-x="1290" 
d="M139 434q212 10 519.5 13t510.5 -11q16 -89 22 -212q8 -156 -7 -214q-131 -8 -498.5 -17.5t-554.5 -27.5q-34 129 -27.5 259t35.5 210zM201 1620q116 48 454.5 95t495.5 44q30 -260 39 -592.5t-2 -533.5q-18 -8 -78 -20q-74 -13 -133 -20q-72 -9 -137 -12q-59 -3 -86 -1
q0 68 -4 100q-121 0 -182.5 1t-187.5 13t-210 37q-30 55 -40 171q-11 126 -7 254q5 136 24 264q21 128 54 200zM539 922q36 -12 95 -1q61 11 107 11q-3 93 -5 271q-1 80 1 263q-58 -4 -86.5 -13t-93.5 -42q-16 -84 -26.5 -169.5t-10.5 -180t19 -139.5z" />
    <glyph glyph-name="guillemotleft" unicode="&#xab;" horiz-adv-x="1884" 
d="M98 874q129 207 243 408q39 69 117.5 206.5t116.5 205.5q141 12 287.5 -5t208.5 -34q-73 -141 -144.5 -263t-177.5 -288.5t-133 -210.5q196 -365 424 -750q-33 -4 -108.5 -12.5t-119 -13.5t-113.5 -12t-89.5 -7t-48.5 2q-270 396 -463 774zM829 874q123 197 244 408
q39 67 117.5 204.5t118.5 207.5q141 12 286.5 -5t206.5 -34q-70 -140 -146 -268.5t-171 -277.5t-135 -216q249 -464 422 -750q-34 -4 -109 -12.5t-119.5 -13.5t-113 -12t-89 -7t-47.5 2q-269 390 -465 774z" />
    <glyph glyph-name="logicalnot" unicode="&#xac;" horiz-adv-x="1888" 
d="M147 1464q111 7 275.5 7.5t349.5 -4t345 -10t336.5 -12.5t248.5 -9q15 -265 -6 -764q-19 -410 -41 -606q-166 -37 -408 -9q1 12 7 73.5t8 81.5t6.5 77.5t5.5 85t3.5 79t1 85.5t-3.5 77.5t-7.5 81.5t-12.5 74h-196h-285q-215 0 -330 -1q-220 -2 -325 -5q-12 82 -3.5 364
t31.5 334z" />
    <glyph glyph-name="uni00AD" unicode="&#xad;" horiz-adv-x="819" 
d="M127 979q44 6 122 9q79 3 165 6t163 0q79 -3 119 -9q11 -104 12 -223q2 -142 -6 -217q-145 -19 -291 -20q-149 -1 -288 -27q-18 138 -14.5 264.5t18.5 216.5z" />
    <glyph glyph-name="registered" unicode="&#xae;" horiz-adv-x="2101" 
d="M123 1493q63 70 145 175q73 94 152 179q254 46 682 57q136 3 310.5 3.5t195.5 1.5q134 -117 327 -430q30 -200 40 -579.5t-5 -493.5q-28 -40 -116.5 -180.5t-145.5 -211.5q-182 -24 -362 -34q-190 -10 -371 -12q-180 -1 -334 3q-153 4 -250 9q-64 67 -140.5 199.5
t-115.5 234.5q-28 248 -29.5 557t17.5 522zM573 322q108 -36 233 -58q129 -22 264 -25q129 -3 251 11q119 14 195 51q34 150 45 324q10 174 0 346q-9 166 -35 332q-26 163 -60 286q-107 29 -238 39q-125 10 -258 2q-124 -7 -228 -35q-100 -25 -144 -69q-52 -87 -77 -243
q-24 -150 -29 -333q-3 -173 17 -346q21 -171 64 -282zM653 1421q75 24 308.5 38.5t324.5 2.5q73 -88 115 -194t72 -252q-5 -30 -75.5 -129t-74.5 -113q25 -46 96 -205q20 -43 68 -157q-51 -39 -128 -51q-81 -11 -151 -1q-48 64 -105.5 162t-74.5 125q-35 71 -78 47
q-12 -4 -18 -39.5t-6 -60.5q-2 -63 0 -101q2 -47 -2 -104q-106 -9 -281 10q-11 83 -7 492q4 392 17 530zM940 930q38 -5 104 14.5t99 52.5q6 59 -12 102q-17 43 -21 75q-19 22 -73.5 25t-84.5 -7q-20 -190 -12 -262z" />
    <glyph glyph-name="degree" unicode="&#xb0;" horiz-adv-x="1122" 
d="M109 1638q61 67 193.5 105.5t272 41t266.5 -37t175 -117.5q9 -62 13 -162q6 -143 7 -224q2 -151 1 -213q-2 -104 -5 -128q-51 -74 -183.5 -115.5t-276 -42t-275.5 41.5t-182 120q-7 79 -11 168t-4 206q0 72 2 202q1 82 7 155zM444 1075q49 -13 129 -12.5t113 22.5
q0 100 3 181q3 84 -13 176q-15 0 -64 4.5t-88 2.5t-69 -15q-16 -93 -17 -178.5t6 -180.5z" />
    <glyph glyph-name="plusminus" unicode="&#xb1;" horiz-adv-x="1110" 
d="M121 1327q11 3 32 4.5t40.5 2t57 1.5t60.5 2q0 159 13 389q111 17 249 22q133 4 246 3q0 -367 -2 -412q156 0 193 -6q9 -73 12 -188t-4 -189q-30 -3 -105.5 -5.5t-113.5 -4.5q-3 -47 -11 -173.5t-12 -184.5q-17 -9 -82 -17q-62 -6 -130 -9t-132 -3q-54 0 -92 2
q-3 53 -12 187.5t-11 185.5q-114 -7 -202 -16q-18 106 -15 225.5t21 183.5zM133 430q136 10 434.5 12t427.5 -8q14 -74 20 -203.5t-7 -205.5q-70 -4 -393.5 -13t-489.5 -28q-28 114 -22 245q6 125 30 201z" />
    <glyph glyph-name="acute" unicode="&#xb4;" horiz-adv-x="790" 
d="M51 1178q33 49 66.5 122t50.5 117.5t46 129t30 87.5q270 0 489 -112q-80 -99 -190 -227q-99 -115 -193 -179q-73 5 -152 19q-85 17 -147 43z" />
    <glyph glyph-name="paragraph" unicode="&#xb6;" horiz-adv-x="2101" 
d="M51 1038q-18 247 77 498q83 219 206 342q68 10 210 16q339 17 646 13q128 -1 337 -7q165 -5 280 -16q120 -10 173 -29q9 -397 12 -620.5t-3 -600t-27 -665.5q-110 -14 -219 -9.5t-190 17t-136 29.5q-1 34 -11.5 207.5t-10.5 247.5q-48 7 -121 14q-6 -236 -6 -493
q-103 -1 -235 -8q-114 -7 -236 22q-8 257 -15 541q-95 14 -235 40q-103 21 -158 41q-79 68 -172 187t-166 233zM659 1081q36 -19 119 -37q0 215 4 386q-73 -17 -86 -33q-1 -4 -9.5 -47t-15.5 -83.5t-11.5 -94.5t-0.5 -91zM1286 975q90 -8 121 -8q11 70 12 217t-8 250
q-21 17 -123 22q4 -195 -2 -481z" />
    <glyph glyph-name="middot" unicode="&#xb7;" horiz-adv-x="905" 
d="M180 838q6 34 38.5 62t79 45.5t84.5 27t71 14.5q43 10 115.5 -7t121.5 -42q65 -160 47 -307q-17 -34 -97.5 -59t-184.5 -36q-97 -10 -176.5 -0.5t-98.5 39.5q-22 33 -16 128q3 56 16 135z" />
    <glyph glyph-name="cedilla" unicode="&#xb8;" horiz-adv-x="1658" 
d="M342 -8q7 1 37 3.5t41.5 3.5t40.5 4t43 5t40.5 6t41.5 7.5t36 8.5t35 10.5t28 12.5t24 15q28 58 34.5 206t-0.5 283q88 11 229.5 1.5t217.5 -23.5q5 -69 7 -179q1 -95 -5 -204q-6 -100 -24 -189q-16 -87 -48 -131q-124 -51 -367 -71q-144 -13 -372 -13q-18 15 -28.5 95
t-10.5 149z" />
    <glyph glyph-name="ordmasculine" unicode="&#xba;" horiz-adv-x="1290" 
d="M139 434q212 10 519.5 13t510.5 -11q16 -89 22 -212q8 -156 -7 -214q-131 -8 -498.5 -17.5t-554.5 -27.5q-34 129 -27.5 259t35.5 210zM125 1591q69 77 220 121.5t310 46.5t303 -43t199 -131q17 -134 24 -431q4 -331 -5 -386q-61 -81 -206.5 -128.5t-316.5 -47.5
q-173 -1 -318.5 46.5t-201.5 135.5q-7 74 -12 186q-4 100 -4 233q0 85 2 227q1 108 6 171zM508 961q202 -37 274 14q0 119 4 202q5 95 -16 197q-16 0 -72 5t-101 3t-79 -16q-10 -57 -13.5 -113t-3.5 -83t3 -104.5t4 -104.5z" />
    <glyph glyph-name="guillemotright" unicode="&#xbb;" horiz-adv-x="1847" 
d="M98 143q70 139 148 270.5t168 274t137 221.5q-283 516 -422 750q54 5 179 19.5t204.5 21t95.5 0.5q285 -418 463 -776q-129 -207 -243 -405q-96 -168 -234 -413q-98 -7 -216 1t-178.5 17.5t-101.5 18.5zM811 143q70 140 145 267.5t171.5 280t136.5 218.5
q-207 379 -422 750q46 3 149 15.5t136 15.5q80 8 125 11q56 3 67 -1q273 -397 465 -776q-123 -195 -244 -405q-86 -149 -235 -413q-99 -7 -215 0.5t-178.5 17.5t-100.5 19z" />
    <glyph glyph-name="questiondown" unicode="&#xbf;" horiz-adv-x="1449" 
d="M78 672q79 72 195.5 160t189.5 129q32 78 40 153q8 80 25 160q41 13 116 20q75 9 163 15q43 3 164 10q69 4 119 4q32 -133 4 -414q-54 -54 -155 -124.5t-210 -129.5q-20 -99 8 -190q60 -33 189 -26.5t250.5 27.5t166.5 38q-20 -105 -32 -164.5t-35 -144t-53 -168.5
q-94 -50 -256.5 -72t-323.5 -15.5t-305 31.5t-211 62q-13 52 -27 131q-15 90 -23 174q-10 98 -11 182q-1 91 12 152zM492 1829q34 37 119 65.5t177.5 40.5t179.5 7t126 -29q23 -15 25.5 -139.5t-17.5 -147.5q-43 -53 -116 -84t-158 -37q-159 -12 -296 45q-1 5 -11.5 36.5
t-18.5 63t-13.5 83t3.5 96.5z" />
    <glyph glyph-name="Agrave" unicode="&#xc0;" horiz-adv-x="2078" 
d="M6 -31q18 138 67 325q49 190 114 402q50 164 136 422q74 218 136 389q-31 1 -58 6q-68 18 -79 23q7 29 24.5 110t33.5 140.5t34 93.5q167 38 384 50q140 9 249 10q36 1 106 1q49 -1 145 -3q283 -9 404 -44q17 -83 93 -438t105.5 -501.5t79 -425t82.5 -523.5
q-193 -40 -488 -44h-50q-61 0 -88 1q-5 17 -17 53.5t-15.5 48.5t-12 40t-12 42.5t-9.5 40t-11 50t-11 55.5q-72 11 -165 12q-41 1 -124 1h-61q-191 -2 -310 -30q-43 -89 -63 -146t-41 -155q-108 -26 -293.5 -26.5t-284.5 20.5zM838 780q34 -7 95 -12q41 -3 81 -3q29 0 42 1
q154 6 189 16q-13 149 -48.5 331.5t-74.5 275.5q-23 56 -51 56q-4 0 -5 -1q-32 -6 -54 -55q-22 -45 -99.5 -304.5t-74.5 -304.5zM837 2292q147 75 325 75q65 -208 130 -305q-99 -36 -200 -41q-64 43 -129 120q-79 94 -126 151z" />
    <glyph glyph-name="Aacute" unicode="&#xc1;" horiz-adv-x="2078" 
d="M6 -31q18 138 67 325q49 190 114 402q50 164 136 422q74 218 136 389q-31 1 -58 6q-68 18 -79 23q7 29 24.5 110t33.5 140.5t34 93.5q167 38 384 50q140 9 249 10q36 1 106 1q49 -1 145 -3q283 -9 404 -44q17 -83 93 -438t105.5 -501.5t79 -425t82.5 -523.5
q-193 -40 -488 -44h-50q-61 0 -88 1q-5 17 -17 53.5t-15.5 48.5t-12 40t-12 42.5t-9.5 40t-11 50t-11 55.5q-72 11 -165 12q-41 1 -124 1h-61q-191 -2 -310 -30q-43 -89 -63 -146t-41 -155q-108 -26 -293.5 -26.5t-284.5 20.5zM838 780q34 -7 95 -12q41 -3 81 -3q29 0 42 1
q154 6 189 16q-13 149 -48.5 331.5t-74.5 275.5q-23 56 -51 56q-4 0 -5 -1q-32 -6 -54 -55q-22 -45 -99.5 -304.5t-74.5 -304.5zM931 2059q18 27 34.5 61t31.5 71t24.5 63.5t22.5 64t16 46.5q180 0 327 -75q-57 -70 -127 -152q-64 -76 -129 -120q-122 8 -200 41z" />
    <glyph glyph-name="Acircumflex" unicode="&#xc2;" horiz-adv-x="2078" 
d="M6 -31q18 138 67 325q49 190 114 402q50 164 136 422q74 218 136 389q-31 1 -58 6q-68 18 -79 23q7 29 24.5 110t33.5 140.5t34 93.5q167 38 384 50q140 9 249 10q36 1 106 1q49 -1 145 -3q283 -9 404 -44q17 -83 93 -438t105.5 -501.5t79 -425t82.5 -523.5
q-193 -40 -488 -44h-50q-61 0 -88 1q-5 17 -17 53.5t-15.5 48.5t-12 40t-12 42.5t-9.5 40t-11 50t-11 55.5q-72 11 -165 12q-41 1 -124 1h-61q-191 -2 -310 -30q-43 -89 -63 -146t-41 -155q-108 -26 -293.5 -26.5t-284.5 20.5zM838 780q34 -7 95 -12q41 -3 81 -3q29 0 42 1
q154 6 189 16q-13 149 -48.5 331.5t-74.5 275.5q-23 56 -51 56q-4 0 -5 -1q-32 -6 -54 -55q-22 -45 -99.5 -304.5t-74.5 -304.5zM754 2019q25 70 75.5 165.5t102.5 174.5q61 7 313 7q76 -140 198 -330q-27 -2 -84 -8t-95 -9.5t-45 -0.5q-11 21 -30.5 51.5t-41 61.5t-24.5 35
q-1 1 -3.5 5t-4.5 7.5t-5.5 6t-7.5 2.5q-16 0 -31 -25q-66 -98 -89 -149q-119 -10 -228 6z" />
    <glyph glyph-name="Atilde" unicode="&#xc3;" horiz-adv-x="2078" 
d="M6 -31q18 138 67 325q49 190 114 402q50 164 136 422q74 218 136 389q-31 1 -58 6q-68 18 -79 23q7 29 24.5 110t33.5 140.5t34 93.5q167 38 384 50q140 9 249 10q36 1 106 1q49 -1 145 -3q283 -9 404 -44q17 -83 93 -438t105.5 -501.5t79 -425t82.5 -523.5
q-193 -40 -488 -44h-50q-61 0 -88 1q-5 17 -17 53.5t-15.5 48.5t-12 40t-12 42.5t-9.5 40t-11 50t-11 55.5q-72 11 -165 12q-41 1 -124 1h-61q-191 -2 -310 -30q-43 -89 -63 -146t-41 -155q-108 -26 -293.5 -26.5t-284.5 20.5zM838 780q34 -7 95 -12q41 -3 81 -3q29 0 42 1
q154 6 189 16q-13 149 -48.5 331.5t-74.5 275.5q-23 56 -51 56q-4 0 -5 -1q-32 -6 -54 -55q-22 -45 -99.5 -304.5t-74.5 -304.5zM753 2128q111 182 190 209q18 8 38.5 7.5t40 -6t44 -16.5t44.5 -22t46.5 -24t47.5 -21q40 -16 94 25q22 19 44 47q69 -28 99 -75
q-166 -214 -241 -209q-12 1 -26.5 4t-32 9t-29.5 10.5t-34 13.5t-31 12q-95 39 -112 35q-33 -13 -81 -72q-80 33 -101 73z" />
    <glyph glyph-name="Adieresis" unicode="&#xc4;" horiz-adv-x="2078" 
d="M6 -27q21 127 68 291q54 188 113 361q60 178 137 381q75 200 135 350q-28 1 -58 8q-48 8 -79 18q8 26 26 99t34 126t32 87q201 44 633 51q449 5 655 -39q18 -79 93.5 -394.5t105.5 -450t79 -385t82 -472.5q-146 -23 -318.5 -32t-307.5 -5q-38 106 -53.5 156t-34.5 139
q-142 16 -350 12.5t-310 -26.5q-42 -77 -62 -129t-42 -142q-123 -24 -293.5 -23.5t-284.5 19.5zM618 2175q6 39 31.5 72.5t61 54t67 32.5t58.5 17q32 11 90 -10t96 -49q55 -192 37 -361q-20 -52 -121.5 -87t-201.5 -30t-118 52q-15 58 -13 150.5t13 158.5zM838 702
q40 -9 94 -10q82 -2 123 -2q125 0 190 12q-13 131 -47 293t-76 256q-15 35 -35.5 44.5t-39.5 -3t-35 -41.5q-13 -21 -98 -268q-76 -230 -76 -281zM1286 2179q5 37 26.5 67t54 49t58 29.5t53.5 20.5q5 1 7 2q32 8 85 -11t87 -46q51 -170 35 -342q-14 -38 -75 -67t-130 -39
t-129 0t-72 42q-20 60 0 295z" />
    <glyph glyph-name="Aring" unicode="&#xc5;" horiz-adv-x="2078" 
d="M6 -27q19 122 67 291q49 169 114 361q54 159 136 381q80 212 136 350q-28 1 -58 8q-44 7 -79 18q8 27 25.5 99.5t33.5 126t33 86.5q201 44 633 51q449 5 655 -39q18 -79 93.5 -394.5t105.5 -450t79 -385t82 -472.5q-146 -23 -318.5 -32t-307.5 -5q-7 21 -19.5 56.5
t-17.5 49.5t-13 40.5t-13 45t-11.5 45t-13.5 58.5q-142 16 -350 12.5t-310 -26.5q-43 -79 -63 -130t-41 -141q-123 -24 -294 -23.5t-284 19.5zM645 2241q62 32 196.5 49.5t289.5 19.5q159 1 286 -17.5t176 -54.5q15 -46 21 -182q2 -72 1 -103q-2 -51 -5 -61
q-73 -47 -277 -65t-407 0.5t-273 66.5q-15 59 -16 178.5t8 168.5zM838 702q51 -12 217 -12q125 0 190 12q-13 131 -47 293q-35 168 -76 256q-26 51 -56.5 48t-53.5 -48q-13 -21 -98 -268q-76 -226 -76 -281zM997 1972q205 -9 252 6q0 50 3 87q3 38 -15 83q-47 0 -113 3
q-67 3 -118 -7q-18 -52 -17 -85q1 -27 8 -87z" />
    <glyph glyph-name="AE" unicode="&#xc6;" horiz-adv-x="2826" 
d="M8 -31q33 133 102 325q78 211 158 402q82 196 183 422q98 216 178 389q-31 1 -58 6q-72 19 -79 23q9 86 34.5 188t55.5 154q118 27 371.5 44t494.5 17q323 21 667 21q229 0 603 -12q32 -93 16 -410q-117 -3 -216.5 -1.5t-224 -1t-214.5 -11.5q-33 -50 -33 -182t37 -203
q5 -2 39 -2t103 1t115 1q69 -1 129 -0.5t114.5 -1t78.5 -7.5q7 -72 12 -160q4 -85 -3 -157q-62 -6 -264.5 -9.5t-305.5 -23.5q-23 -59 -11 -186q11 -115 32 -193q80 -24 286 -17q114 4 170 5q84 1 142 -6q15 -99 16 -198q2 -108 -20 -199q-299 -31 -640.5 -33.5t-639.5 10.5
q-3 17 -15 76t-17 85.5t-12 72.5t-10 84q-119 42 -347 35q-168 -5 -312 -40q-53 -89 -79 -146t-58 -155q-110 -26 -296 -26t-282 20zM928 780q27 -16 88 -19q52 -3 122 -1q64 2 120 9q61 8 77 13q5 139 -12.5 325t-44.5 282q-9 31 -21.5 44.5t-28.5 10.5q-33 -6 -61 -55
q-26 -40 -129.5 -300.5t-109.5 -308.5z" />
    <glyph glyph-name="Ccedilla" unicode="&#xc7;" horiz-adv-x="1679" 
d="M256 1749q84 44 273 84.5t407 64.5q148 17 266 23q117 6 220 4q97 -2 134 -18q32 -202 0 -377q-74 -7 -194.5 -13.5t-188 -11.5t-158 -23t-167.5 -48q-22 -76 -45 -180q-20 -99 -31 -208q-23 -242 37 -344q48 -30 169.5 -45.5t242 -17.5t233.5 -8t143 -19q4 -89 -17 -226
q-21 -132 -60 -161q-171 0 -324 4q-5 -124 -21 -233q-17 -112 -55 -164q-124 -51 -367 -71q-144 -13 -372 -13q-18 15 -28.5 95t-10.5 149q7 1 37 3.5t41.5 3.5t40.5 4t43 5t40.5 6t41.5 7.5t36 8.5t35 10.5t28 12.5t24 15q25 46 34 192q-321 33 -571 119
q-82 99 -97.5 375.5t36 566.5t145.5 428z" />
    <glyph glyph-name="Egrave" unicode="&#xc8;" horiz-adv-x="1736" 
d="M72 1522q8 209 49 376q191 42 486 57q109 6 267 8h90q118 0 176 -1q178 -3 466 -14q19 -52 21 -200v-38q0 -51 -1 -76q-1 -22 -2.5 -56.5t-1.5 -37.5q-115 -5 -207 -5q-68 0 -103 1q-21 1 -62 1q-129 0 -249 -13q-17 -26 -27 -74q-9 -41 -14 -106q0 -7 -1 -22t-1 -23
q0 -39 4 -68q6 -56 19 -92q5 -2 38 -2t100.5 1t113.5 1q67 -1 125.5 -0.5t113 -1t78.5 -7.5q7 -72 12 -160q0 -8 0.5 -24t1.5 -24q0 -54 -8 -107q-70 -8 -272.5 -10t-306.5 -25q-13 -30 -19 -81q-3 -25 -5 -76q0 -19 1 -29q5 -114 19 -193q47 -14 128 -17q83 -4 176 0
q125 4 183 5q29 0 43 1q57 0 105 -5q15 -101 16 -199v-17q0 -99 -22 -183q-393 -37 -655 -38h-37q-157 0 -300 7q-159 7 -360 31q-14 180 -20 362q-5 191 -6 388v99q0 99 2 299q4 255 7 386q-24 0 -81.5 1t-79.5 1zM697 2306q147 75 325 75q65 -208 130 -305
q-99 -36 -200 -41q-64 43 -129 120q-79 94 -126 151z" />
    <glyph glyph-name="Eacute" unicode="&#xc9;" horiz-adv-x="1736" 
d="M72 1522q8 209 49 376q191 42 486 57q109 6 267 8h90q118 0 176 -1q178 -3 466 -14q19 -52 21 -200v-38q0 -51 -1 -76q-1 -22 -2.5 -56.5t-1.5 -37.5q-115 -5 -207 -5q-68 0 -103 1q-21 1 -62 1q-129 0 -249 -13q-17 -26 -27 -74q-9 -41 -14 -106q0 -7 -1 -22t-1 -23
q0 -39 4 -68q6 -56 19 -92q5 -2 38 -2t100.5 1t113.5 1q67 -1 125.5 -0.5t113 -1t78.5 -7.5q7 -72 12 -160q0 -8 0.5 -24t1.5 -24q0 -54 -8 -107q-70 -8 -272.5 -10t-306.5 -25q-13 -30 -19 -81q-3 -25 -5 -76q0 -19 1 -29q5 -114 19 -193q47 -14 128 -17q83 -4 176 0
q125 4 183 5q29 0 43 1q57 0 105 -5q15 -101 16 -199v-17q0 -99 -22 -183q-393 -37 -655 -38h-37q-157 0 -300 7q-159 7 -360 31q-14 180 -20 362q-5 191 -6 388v99q0 99 2 299q4 255 7 386q-24 0 -81.5 1t-79.5 1zM776 2078q18 27 34.5 61t31.5 71t24.5 63.5t22.5 64
t16 46.5q180 0 327 -75q-57 -70 -127 -152q-65 -77 -129 -120q-122 8 -200 41z" />
    <glyph glyph-name="Ecircumflex" unicode="&#xca;" horiz-adv-x="1736" 
d="M72 1522q8 209 49 376q191 42 486 57q109 6 267 8h90q118 0 176 -1q178 -3 466 -14q19 -52 21 -200v-38q0 -51 -1 -76q-1 -22 -2.5 -56.5t-1.5 -37.5q-115 -5 -207 -5q-68 0 -103 1q-21 1 -62 1q-129 0 -249 -13q-17 -26 -27 -74q-9 -41 -14 -106q0 -7 -1 -22t-1 -23
q0 -39 4 -68q6 -56 19 -92q5 -2 38 -2t100.5 1t113.5 1q67 -1 125.5 -0.5t113 -1t78.5 -7.5q7 -72 12 -160q0 -8 0.5 -24t1.5 -24q0 -54 -8 -107q-70 -8 -272.5 -10t-306.5 -25q-13 -30 -19 -81q-3 -25 -5 -76q0 -19 1 -29q5 -114 19 -193q47 -14 128 -17q83 -4 176 0
q125 4 183 5q29 0 43 1q57 0 105 -5q15 -101 16 -199v-17q0 -99 -22 -183q-393 -37 -655 -38h-37q-157 0 -300 7q-159 7 -360 31q-14 180 -20 362q-5 191 -6 388v99q0 99 2 299q4 255 7 386q-24 0 -81.5 1t-79.5 1zM593 2038q25 70 75.5 165.5t102.5 174.5q61 7 313 7
q76 -140 198 -330q-27 -2 -84 -8t-95 -9.5t-45 -0.5q-11 21 -30.5 51.5t-41 61.5t-24.5 35q-1 1 -3.5 5t-4.5 7.5t-5.5 6t-7.5 2.5q-16 0 -31 -25q-66 -98 -89 -149q-119 -10 -228 6z" />
    <glyph glyph-name="Edieresis" unicode="&#xcb;" horiz-adv-x="1736" 
d="M72 1370q8 186 49 338q346 62 753 59q471 0 732 -16q32 -78 16 -369q-156 -5 -311 0q-154 4 -310 -12q-34 -42 -41.5 -161t21.5 -185q34 -4 134 -1t243.5 3t191.5 -8q23 -168 6 -287q-66 -6 -269.5 -8.5t-309.5 -20.5q-28 -48 -23 -169q4 -98 19 -173q45 -13 128 -15
t176 0q93 1 183 3q95 2 148 -4q15 -89 16 -177q3 -96 -22 -179q-239 -22 -439.5 -30t-435.5 -2t-477 32q-40 442 -17 1380q-22 0 -79.5 1t-81.5 1zM387 2200q6 39 32 72.5t62 54t67 32.5t56 17q33 11 91.5 -10t95.5 -50q53 -187 38 -360q-17 -41 -82 -71q-66 -31 -141 -41
q-80 -11 -141 -1q-65 11 -78 47q-15 58 -13 151t13 159zM1055 2204q5 36 26.5 66t53 48.5t57.5 30t53 20.5q7 2 10 3q33 8 86.5 -11.5t83.5 -46.5q51 -170 35 -342q-17 -50 -110.5 -82t-186.5 -27.5t-108 46.5q-14 39 -12 143q0 25 12 152z" />
    <glyph glyph-name="Igrave" unicode="&#xcc;" horiz-adv-x="897" 
d="M161 922v157q0 206 1 307q1 209 8 416q37 9 78 15.5t89.5 10.5t82.5 6.5t92 3.5t81.5 1h87h75.5q0 -831 -49 -1790q-46 -27 -240 -39t-279 -4q-25 440 -27 916zM193 2186q147 75 325 75q65 -208 130 -305q-99 -36 -200 -41q-64 43 -129 120q-79 94 -126 151z" />
    <glyph glyph-name="Iacute" unicode="&#xcd;" horiz-adv-x="897" 
d="M161 922v157q0 206 1 307q1 209 8 416q37 9 78 15.5t89.5 10.5t82.5 6.5t92 3.5t81.5 1h87h75.5q0 -831 -49 -1790q-46 -27 -240 -39t-279 -4q-25 440 -27 916zM292 1956q18 27 34.5 61t31.5 71t24.5 63.5t22.5 64t16 46.5q180 0 327 -75q-57 -70 -127 -152
q-65 -77 -129 -120q-122 8 -200 41z" />
    <glyph glyph-name="Icircumflex" unicode="&#xce;" horiz-adv-x="897" 
d="M27 1759q34 112 95 256t124 252q29 6 88 8.5t104.5 2.5t114 -0.5t74.5 -0.5q166 -351 241 -493q-37 -2 -103.5 -11.5t-114 -15.5t-56.5 -2q-24 54 -62 126.5t-55 98.5q-2 2 -5.5 9.5t-8 13.5t-10.5 6q-21 0 -39 -39q-82 -149 -109 -221q-95 -6 -176 -2.5t-102 12.5z
M170 1622q215 39 586 35q0 -686 -49 -1614q-46 -23 -241 -33.5t-278 -3.5q-26 400 -27 824q-1 145 1 418q1 187 8 374z" />
    <glyph glyph-name="Idieresis" unicode="&#xcf;" horiz-adv-x="897" 
d="M29 2105q4 40 22.5 72t47.5 52.5t49.5 31t46.5 20.5q6 2 8 3q28 7 73.5 -13t77.5 -47q46 -191 31 -362q-12 -41 -66 -71q-53 -30 -115 -41q-64 -11 -113 -1q-52 10 -62 47q-26 75 0 309zM188 6q-26 402 -27 824q-1 145 1 418q1 187 8 374q215 39 586 35q0 -746 -49 -1614
q-48 -21 -247 -34t-272 -3zM569 2111q7 69 60.5 111.5t101.5 54.5q28 10 71 -10t68 -45q40 -204 27 -342q-12 -40 -61 -68q-46 -28 -104 -40q-58 -11 -104 -1q-48 11 -59 46q-20 67 0 294z" />
    <glyph glyph-name="Ntilde" unicode="&#xd1;" horiz-adv-x="2117" 
d="M129 1634q35 33 399 63q112 10 194 14q206 12 284 -1q25 -71 53 -142.5t64.5 -156.5t58 -134.5t69 -154.5t62.5 -139q12 -23 34.5 -31.5t46.5 7t36 57.5q3 10 7 132t8 281t7 220q258 60 526 37q9 -929 -12 -1627q-447 -63 -801 -67q-194 286 -370 713q-8 23 -28.5 33
t-41.5 5q-51 -9 -57 -69q-31 -269 -13 -662q-233 -62 -505 -20q-27 239 -30 764q-5 540 9 878zM514 1913q42 73 90.5 141.5t114.5 133t123 87.5q26 11 55 12.5t59.5 -6.5t61 -20t65 -29.5t66 -34.5t70 -35.5t71.5 -31.5q67 -25 160 47q36 31 76 80q117 -53 172 -131
q-7 -9 -31 -38t-39 -48q-53 -64 -109 -123q-60 -63 -123 -107q-62 -45 -112 -43q-74 5 -264 84q-160 71 -193 58q-26 -7 -67 -45q-45 -43 -72 -74q-138 56 -174 123z" />
    <glyph glyph-name="Ograve" unicode="&#xd2;" horiz-adv-x="2109" 
d="M109 1518q22 25 98 120.5t141 169t101 95.5q6 1 136.5 13t176.5 15t172.5 12.5t200 10t177.5 0.5t186.5 -8.5t150.5 -22.5q149 -129 329 -455q5 -73 9 -170q8 -135 14 -430q7 -390 -10 -518q-29 -40 -124 -184.5t-155 -216.5q-224 -43 -651.5 -44.5t-704.5 34.5
q-60 68 -142 213t-116 243q-2 164 -2 274q0 202 1 303q2 168 3 295q2 145 9 251zM802 886v-201q2 -97 3 -173q2 -104 2 -115q47 -24 115 -32q30 -3 61 -3q41 0 73 4q148 18 224 91q0 13 4.5 198.5t5 260t-5 223t-18.5 268.5q-24 -1 -78.5 -2t-78.5 -1.5t-68 -4.5t-72 -10.5
t-64.5 -18.5t-70.5 -29q-21 -44 -28 -255q-2 -67 -4 -200zM770 2291q147 75 325 75q65 -208 130 -305q-99 -36 -200 -41q-65 44 -129 120q-79 94 -126 151z" />
    <glyph glyph-name="Oacute" unicode="&#xd3;" horiz-adv-x="2109" 
d="M109 1518q22 25 98 120.5t141 169t101 95.5q6 1 136.5 13t176.5 15t172.5 12.5t200 10t177.5 0.5t186.5 -8.5t150.5 -22.5q149 -129 329 -455q5 -73 9 -170q8 -135 14 -430q7 -390 -10 -518q-29 -40 -124 -184.5t-155 -216.5q-224 -43 -651.5 -44.5t-704.5 34.5
q-60 68 -142 213t-116 243q-2 164 -2 274q0 202 1 303q2 168 3 295q2 145 9 251zM802 886v-201q2 -97 3 -173q2 -104 2 -115q47 -24 115 -32q30 -3 61 -3q41 0 73 4q148 18 224 91q0 13 4.5 198.5t5 260t-5 223t-18.5 268.5q-24 -1 -78.5 -2t-78.5 -1.5t-68 -4.5t-72 -10.5
t-64.5 -18.5t-70.5 -29q-21 -44 -28 -255q-2 -67 -4 -200zM913 2059q18 27 34.5 61t31.5 71t24.5 63.5t22.5 64t16 46.5q180 0 327 -75q-57 -70 -127 -152q-64 -76 -129 -120q-122 8 -200 41z" />
    <glyph glyph-name="Ocircumflex" unicode="&#xd4;" horiz-adv-x="2109" 
d="M109 1518q22 25 98 120.5t141 169t101 95.5q6 1 136.5 13t176.5 15t172.5 12.5t200 10t177.5 0.5t186.5 -8.5t150.5 -22.5q149 -129 329 -455q5 -73 9 -170q8 -135 14 -430q7 -390 -10 -518q-29 -40 -124 -184.5t-155 -216.5q-224 -43 -651.5 -44.5t-704.5 34.5
q-60 68 -142 213t-116 243q-2 164 -2 274q0 202 1 303q2 168 3 295q2 145 9 251zM802 886v-201q2 -97 3 -173q2 -104 2 -115q47 -24 115 -32q30 -3 61 -3q41 0 73 4q148 18 224 91q0 13 4.5 198.5t5 260t-5 223t-18.5 268.5q-24 -1 -78.5 -2t-78.5 -1.5t-68 -4.5t-72 -10.5
t-64.5 -18.5t-70.5 -29q-21 -44 -28 -255q-2 -67 -4 -200zM696 2021q25 70 75.5 165.5t102.5 174.5q61 7 313 7q76 -140 198 -330q-27 -2 -84 -8t-95 -9.5t-45 -0.5q-11 21 -30.5 51.5t-41 61.5t-24.5 35q-1 1 -3.5 5t-4.5 7.5t-5.5 6t-7.5 2.5q-16 0 -31 -25
q-66 -98 -89 -149q-119 -10 -228 6z" />
    <glyph glyph-name="Otilde" unicode="&#xd5;" horiz-adv-x="2109" 
d="M109 1518q22 25 98 120.5t141 169t101 95.5q6 1 136.5 13t176.5 15t172.5 12.5t200 10t177.5 0.5t186.5 -8.5t150.5 -22.5q149 -129 329 -455q5 -73 9 -170q8 -135 14 -430q7 -390 -10 -518q-29 -40 -124 -184.5t-155 -216.5q-224 -43 -651.5 -44.5t-704.5 34.5
q-60 68 -142 213t-116 243q-2 164 -2 274q0 202 1 303q2 168 3 295q2 145 9 251zM802 886v-201q2 -97 3 -173q2 -104 2 -115q47 -24 115 -32q30 -3 61 -3q41 0 73 4q148 18 224 91q0 13 4.5 198.5t5 260t-5 223t-18.5 268.5q-24 -1 -78.5 -2t-78.5 -1.5t-68 -4.5t-72 -10.5
t-64.5 -18.5t-70.5 -29q-21 -44 -28 -255q-2 -67 -4 -200zM737 2136q111 182 190 209q18 8 38.5 7.5t40 -6t44 -16.5t44.5 -22t46.5 -24t47.5 -21q40 -16 94 25q22 19 44 47q69 -28 99 -75q-166 -214 -241 -209q-12 1 -26.5 4t-32 9t-29.5 10.5t-34 13.5t-31 12
q-95 39 -112 35q-33 -13 -81 -72q-80 33 -101 73z" />
    <glyph glyph-name="Odieresis" unicode="&#xd6;" horiz-adv-x="2109" 
d="M98 356q-3 150 -1 519q2 146 3 266q3 129 9 225q5 5 66.5 74.5t100.5 111.5q127 137 173 158q180 20 370 33t433.5 13.5t396.5 -25.5q138 -114 329 -408q6 -83 13 -245q6 -146 9 -297q3 -166 2 -278q-2 -133 -11 -188q-31 -39 -125 -167.5t-154 -194.5
q-226 -37 -651.5 -39t-704.5 29q-62 65 -144.5 196.5t-113.5 216.5zM510 2183q5 40 30.5 73.5t61.5 54t66.5 32t56.5 16.5q34 10 91.5 -10.5t96.5 -48.5q54 -196 37 -361q-20 -52 -122 -87t-202 -30.5t-116 50.5q-10 31 -12 92.5t2 117.5t10 101zM834 1206q-9 -16 -15.5 -53
t-9.5 -102t-4.5 -113.5t-2.5 -140.5q-1 -110 2 -271.5t3 -167.5q102 -44 249.5 -26t223.5 78q0 13 4.5 179.5t5 234t-5 202t-18.5 242.5q-23 -1 -79 -2t-78.5 -2t-67.5 -4.5t-72.5 -9.5t-64.5 -17t-70 -27zM1178 2187q17 113 198 168q35 8 87 -13q53 -20 85 -44
q51 -171 35 -342q-19 -51 -112.5 -83.5t-185.5 -27.5t-107 47q-11 28 -12.5 88.5t2.5 113t10 93.5z" />
    <glyph glyph-name="Oslash" unicode="&#xd8;" horiz-adv-x="2109" 
d="M102 1483q18 17 44.5 46.5t65 74.5t60.5 69q117 131 172 164q534 49 846 49q37 64 70 111q105 8 191.5 6t175 -15t137 -23.5t78.5 -18.5q-85 -138 -146 -242q67 -79 186 -268q17 -229 23.5 -557.5t-10.5 -479.5q-28 -37 -123.5 -171t-155.5 -203q-238 -41 -798 -41
q-7 -17 -33.5 -72.5t-38.5 -87.5q-201 -17 -361.5 -7t-212.5 29q37 88 76 174q-62 64 -139.5 194.5t-114.5 225.5q-5 238 -3 535q2 354 11 508zM803 1006q129 251 188 358q-86 -12 -160 -49q-14 -28 -20 -113q-7 -94 -8 -196zM1124 426q107 27 156 72q2 46 4.5 142.5
t3.5 117.5q-28 -56 -82.5 -166t-81.5 -166z" />
    <glyph glyph-name="Ugrave" unicode="&#xd9;" horiz-adv-x="1994" 
d="M122 1130v269q2 288 17 405q164 20 317 24q18 1 55 1q125 0 273 -17q-14 -197 -18 -368q-3 -137 -3 -266v-63q1 -198 23 -589q43 -21 100 -28q36 -5 73 -6q15 0 47 2q146 15 208 81q0 115 -3.5 574.5t-0.5 667.5q160 37 323 37h4q44 0 65 -1q86 0 268 2q-1 -110 -5 -339
t-6.5 -390t-3 -356t4.5 -326q-25 -81 -101.5 -205.5t-152.5 -220.5q-117 -4 -273 -12q-192 -9 -322 -14q-166 -6 -332 -6q-160 0 -302 14q-58 62 -137.5 196t-106.5 218q0 73 -5 322.5t-6 393.5zM715 2188q147 75 325 75q65 -208 130 -305q-99 -36 -200 -41q-64 43 -129 120
q-79 94 -126 151z" />
    <glyph glyph-name="Uacute" unicode="&#xda;" horiz-adv-x="1994" 
d="M122 1130v269q2 288 17 405q164 20 317 24q18 1 55 1q125 0 273 -17q-14 -197 -18 -368q-3 -137 -3 -266v-63q1 -198 23 -589q43 -21 100 -28q36 -5 73 -6q15 0 47 2q146 15 208 81q0 115 -3.5 574.5t-0.5 667.5q160 37 323 37h4q44 0 65 -1q86 0 268 2q-1 -110 -5 -339
t-6.5 -390t-3 -356t4.5 -326q-25 -81 -101.5 -205.5t-152.5 -220.5q-117 -4 -273 -12q-192 -9 -322 -14q-166 -6 -332 -6q-160 0 -302 14q-58 62 -137.5 196t-106.5 218q0 73 -5 322.5t-6 393.5zM841 1955q18 27 34.5 61t31.5 71t24.5 63.5t22.5 64t16 46.5q180 0 327 -75
q-57 -70 -127 -152q-64 -76 -129 -120q-122 8 -200 41z" />
    <glyph glyph-name="Ucircumflex" unicode="&#xdb;" horiz-adv-x="1994" 
d="M139 1624q168 20 317 23q151 4 328 -17q-17 -223 -19.5 -443t3 -358.5t18.5 -357.5q57 -22 138.5 -27t163.5 13.5t126 58.5q0 104 -3.5 518t-0.5 600q168 35 326 34q162 -1 334 3q-2 -100 -6.5 -322.5t-6.5 -329.5q-2 -228 -2 -332q0 -148 5 -286q-26 -78 -108 -194
q-93 -132 -146 -193q-117 -2 -273 -9q-153 -7 -322 -12q-185 -5 -332 -5q-165 0 -302 12q-57 53 -136.5 174.5t-107.5 196.5q0 67 -5 291.5t-6 353.5q-4 465 17 608zM479 1772q39 107 113 248t156 266q104 10 242 10q54 0 133.5 -1t95.5 -1q164 -289 299 -498
q-44 -3 -128 -11.5t-142 -13.5t-68 -2q-17 34 -46.5 79t-62 91.5t-37.5 53.5q-1 1 -4.5 8t-6.5 11.5t-8 8t-11 2.5q-9 0 -18 -5t-13.5 -10t-10 -12.5t-6.5 -8.5q-104 -153 -133 -226q-124 -6 -217 -1.5t-127 12.5z" />
    <glyph glyph-name="Udieresis" unicode="&#xdc;" horiz-adv-x="1994" 
d="M133 371q0 67 -5 292t-6 353q-4 465 17 608q168 22 317 23q150 3 328 -17q-17 -223 -19.5 -443t3 -358.5t18.5 -357.5q57 -22 138 -27t163 13.5t127 58.5q0 104 -3.5 518t-0.5 600q168 35 326 34q162 -1 334 3q-2 -100 -6.5 -322.5t-6.5 -329.5q-2 -228 -2 -332
q2 -199 5 -286q-29 -82 -108 -194q-101 -144 -146 -193q-117 -2 -273 -9q-153 -7 -322 -12q-185 -5 -332 -5q-165 0 -302 12q-57 53 -136.5 174.5t-107.5 196.5zM469 2140q16 117 217 178q35 8 91 -11.5t97 -47.5q54 -200 37 -363q-17 -44 -82 -72t-141 -39q-80 -11 -141 -1
q-65 10 -78 45q-25 63 0 311zM1139 2142q5 38 28.5 70t56 51.5t60.5 30.5t53 16q35 10 87 -12q53 -21 85 -41q51 -175 35 -344q-15 -39 -76 -67.5t-129.5 -38t-128.5 1t-71 42.5q-18 45 -13 143q5 99 13 148z" />
    <glyph glyph-name="Yacute" unicode="&#xdd;" horiz-adv-x="1974" 
d="M74 1872q50 3 252 19.5t278 17.5q15 1 40 1q34 0 46 -3q12 -58 46 -132q40 -89 72 -154q12 -24 35.5 -72t34.5 -70q36 -70 44 -90q4 -18 34 -57.5t50 -39.5q34 0 57 27q18 22 31 41q25 53 109.5 248.5t139.5 296.5q98 5 172 5h27q132 -1 235.5 -13t141.5 -25
q-106 -170 -321 -566q-232 -426 -334 -597q-8 -423 -19 -693q-78 -15 -145 -19q-56 -4 -127 -4h-26q-50 0 -148.5 4.5t-145.5 4.5q0 109 -2 228.5t-6 273.5t-6 229q-115 145 -328 560q-194 395 -237 579zM853 2036q18 27 34.5 61t31.5 71t24.5 63.5t22.5 64t16 46.5
q180 0 327 -75q-57 -70 -127 -152q-64 -77 -129 -120q-122 8 -200 41z" />
    <glyph glyph-name="germandbls" unicode="&#xdf;" horiz-adv-x="1998" 
d="M180 1868q410 59 833 62q447 3 586 -38q80 -49 143 -162.5t83 -242.5q-36 -127 -134 -251q-92 -117 -194 -169q5 -2 41 -20t58 -29.5t59 -33.5t68 -43q161 -111 214 -251q8 -90 -61.5 -229.5t-177.5 -251.5q-46 -31 -139 -54t-200 -39q-92 -14 -220 -26
q-111 -10 -197 -12q-12 49 -16.5 72t-11 72.5t-4 101t13.5 112.5q108 13 194 33q54 44 81.5 101.5t26.5 109t-24 88.5q-67 28 -199 34q-155 8 -212 -14q-17 -78 -7 -384t35 -517q-73 1 -204 -5t-234 -3.5t-201 21.5q-10 113 -16 292q-11 303 -9 748q2 251 4 375q3 177 9 323
q6 147 12 230zM778 1192q28 -36 161 -15q117 20 175 42q25 63 28.5 145.5t-20.5 148.5q-22 33 -85 44.5t-122 6.5t-98 -18q-31 -27 -44 -182q-4 -61 -3 -112q1 -49 8 -60z" />
    <glyph glyph-name="agrave" unicode="&#xe0;" 
d="M63 317q5 136 37 264q33 130 80 222q49 31 140 58q89 28 202 54q172 42 463 91q-3 11 -7.5 35t-8.5 41t-8 24q-84 52 -315 61q-53 2 -386 2q-4 105 16 219t54 146q690 76 1147 -55q104 -131 129 -654q7 -147 9 -290q1 -273 -13 -490q-218 -63 -663 -93t-650 7
q-175 230 -226 358zM715 317q13 -6 28 -9.5t37 -4.5t37 -1.5t47 1.5t47 3.5t57.5 5.5t59.5 5q-1 23 -3 151.5t-5 197.5q-67 -13 -157 -26q-76 -9 -150 -46q-27 -63 -24 -136t26 -141zM671 1919q147 75 325 75q65 -208 130 -305q-99 -36 -200 -41q-64 44 -129 120
q-79 94 -126 151z" />
    <glyph glyph-name="aacute" unicode="&#xe1;" 
d="M63 317q5 136 37 264q33 130 80 222q49 31 140 58q89 28 202 54q172 42 463 91q-3 11 -7.5 35t-8.5 41t-8 24q-84 52 -315 61q-53 2 -386 2q-4 105 16 219t54 146q690 76 1147 -55q104 -131 129 -654q7 -147 9 -290q1 -273 -13 -490q-218 -63 -663 -93t-650 7
q-175 230 -226 358zM715 317q13 -6 28 -9.5t37 -4.5t37 -1.5t47 1.5t47 3.5t57.5 5.5t59.5 5q-1 23 -3 151.5t-5 197.5q-67 -13 -157 -26q-76 -9 -150 -46q-27 -63 -24 -136t26 -141zM762 1689q18 27 34.5 61t31.5 71t24.5 63.5t22.5 64t16 46.5q180 0 327 -75
q-57 -70 -127 -152q-65 -76 -129 -120q-122 8 -200 41z" />
    <glyph glyph-name="acircumflex" unicode="&#xe2;" 
d="M63 317q5 136 37 264q33 130 80 222q49 31 140 58q89 28 202 54q172 42 463 91q-3 11 -7.5 35t-8.5 41t-8 24q-84 52 -315 61q-53 2 -386 2q-4 105 16 219t54 146q690 76 1147 -55q104 -131 129 -654q7 -147 9 -290q1 -273 -13 -490q-218 -63 -663 -93t-650 7
q-175 230 -226 358zM595 1647q25 70 75.5 165.5t102.5 174.5q61 7 313 7q76 -140 198 -330q-27 -2 -84 -8t-95 -9.5t-45 -0.5q-11 21 -30.5 51.5t-41 61.5t-24.5 35q-1 1 -3.5 5t-4.5 7.5t-5.5 6t-7.5 2.5q-16 0 -31 -25q-66 -98 -89 -149q-119 -10 -228 6zM715 317
q13 -6 28 -9.5t37 -4.5t37 -1.5t47 1.5t47 3.5t57.5 5.5t59.5 5q-1 23 -3 151.5t-5 197.5q-67 -13 -157 -26q-76 -9 -150 -46q-27 -63 -24 -136t26 -141z" />
    <glyph glyph-name="atilde" unicode="&#xe3;" 
d="M63 317q5 136 37 264q33 130 80 222q49 31 140 58q89 28 202 54q172 42 463 91q-3 11 -7.5 35t-8.5 41t-8 24q-84 52 -315 61q-53 2 -386 2q-4 105 16 219t54 146q690 76 1147 -55q104 -131 129 -654q7 -147 9 -290q1 -273 -13 -490q-218 -63 -663 -93t-650 7
q-175 230 -226 358zM715 317q13 -6 28 -9.5t37 -4.5t37 -1.5t47 1.5t47 3.5t57.5 5.5t59.5 5q-1 23 -3 151.5t-5 197.5q-67 -13 -157 -26q-76 -9 -150 -46q-27 -63 -24 -136t26 -141zM600 1749q111 182 190 209q18 8 38.5 7.5t40 -6t44 -16.5t44.5 -22t46.5 -24t47.5 -21
q40 -16 94 25q22 19 44 47q69 -28 99 -75q-166 -214 -241 -209q-12 1 -26.5 4t-32 9t-29.5 10.5t-34 13.5t-31 12q-95 39 -112 35q-33 -13 -81 -72q-80 33 -101 73z" />
    <glyph glyph-name="adieresis" unicode="&#xe4;" 
d="M63 317q5 136 37 264q33 130 80 222q49 31 140 58q89 28 202 54q172 42 463 91q-3 11 -7.5 35t-8.5 41t-8 24q-84 52 -315 61q-53 2 -386 2q-4 105 16 219t54 146q690 76 1147 -55q104 -131 129 -654q7 -147 9 -290q1 -273 -13 -490q-218 -63 -663 -93t-650 7
q-175 230 -226 358zM413 1966q5 33 24 62t40.5 46t55.5 33.5t51.5 22.5t45.5 15q36 8 93 -12t94 -48q54 -196 37 -360q-20 -54 -121.5 -89t-201.5 -30.5t-118 49.5q-14 62 -12 153.5t12 157.5zM715 317q13 -6 28 -9.5t37 -4.5t37 -1.5t47 1.5t47 3.5t57.5 5.5t59.5 5
q-1 23 -3 151.5t-5 197.5q-67 -13 -157 -26q-76 -9 -150 -46q-27 -63 -24 -136t26 -141zM1081 1971q7 50 46.5 88.5t78 55t74.5 23.5q36 8 87 -11q54 -20 85 -44q50 -173 34 -344q-13 -38 -75 -67q-60 -27 -130 -39q-72 -11 -129 -1q-59 11 -71 46q-13 36 -11 142
q1 37 11 151z" />
    <glyph glyph-name="aring" unicode="&#xe5;" 
d="M63 317q5 136 37 264q33 130 80 222q49 31 140 58q89 28 202 54q172 42 463 91q-3 11 -7.5 35t-8.5 41t-8 24q-84 52 -315 61q-53 2 -386 2q-4 105 16 219t54 146q690 76 1147 -55q104 -131 129 -654q7 -147 9 -290q1 -273 -13 -490q-218 -63 -663 -93t-650 7
q-175 230 -226 358zM447 2032q83 45 285 63t399 0.5t264 -65.5q15 -45 20 -182.5t-4 -163.5q-71 -48 -275.5 -66t-408.5 1t-274 67q-12 68 -14 179t8 167zM715 317q13 -6 28 -9.5t37 -4.5t37 -1.5t47 1.5t47 3.5t57.5 5.5t59.5 5q-1 23 -3 151.5t-5 197.5q-67 -13 -157 -26
q-76 -9 -150 -46q-27 -63 -24 -136t26 -141zM799 1766q50 -8 132.5 -6.5t119.5 12.5q0 48 3 85q3 39 -16 83q-47 0 -113 3q-63 3 -118 -5q-18 -51 -16 -87q1 -27 8 -85z" />
    <glyph glyph-name="ae" unicode="&#xe6;" horiz-adv-x="2736" 
d="M63 317q5 136 37 264q33 130 80 222q49 31 140 58q89 28 202 54q172 42 463 91q-3 11 -7.5 35t-8.5 41t-8 24q-84 52 -315 61q-53 2 -386 2q-4 105 16 219t54 146q690 76 1147 -55q10 -11 16 -25q270 54 590.5 74.5t400.5 -12.5q91 -156 137 -404t39 -489
q-43 -7 -183 -23q-113 -12 -254 -24q-138 -10 -285 -18q-57 -3 -155 -7.5t-114 -5.5q8 -81 35 -119q54 -36 226.5 -57.5t340 -34.5t199.5 -27q5 -95 -16 -207q-22 -125 -54 -145q-433 0 -858 74q-304 -61 -652 -81q-415 -24 -601 11q-175 230 -226 358zM715 317
q13 -6 28 -9.5t37 -4.5t37 -1.5t47 1.5t47 3.5t57.5 5.5t59.5 5q-1 23 -3 151.5t-5 197.5q-67 -13 -157 -26q-76 -9 -150 -46q-27 -63 -24 -136t26 -141zM1677 858q182 -10 383 47q11 155 -32 234q-21 -2 -81 -5.5t-105.5 -12.5t-102.5 -31q-15 -49 -35 -107
q-16 -46 -27 -125z" />
    <glyph glyph-name="ccedilla" unicode="&#xe7;" horiz-adv-x="1511" 
d="M225 1409q242 103 502 140q267 38 545 44q33 -25 61.5 -127t24.5 -186q-35 -13 -113 -26q-158 -26 -176 -29q-100 -16 -183 -37q-91 -22 -136 -49q-38 -60 -50 -172.5t-0.5 -229.5t39.5 -211q85 -32 188.5 -43.5t254 -15t227.5 -10.5q30 -153 0 -326q-80 -17 -334 -8
q-9 -208 -65 -277q-189 -69 -666 -69q-16 14 -27 81t-8 115q9 1 42.5 4t47.5 4.5t45.5 5.5t48.5 6.5t43 7.5t42 9.5t33 11t28 13.5q20 35 29 123q-388 48 -512 110q-60 87 -81 248t-6 347q16 176 58.5 327.5t97.5 218.5z" />
    <glyph glyph-name="egrave" unicode="&#xe8;" horiz-adv-x="1771" 
d="M240 1370q55 30 158 55q195 50 507 83q135 16 265 22q129 6 218 2q97 -5 130 -19q90 -158 136 -404t40 -491q-57 -9 -183 -22q-133 -14 -255 -23q-138 -11 -285 -18q-144 -7 -269 -12q8 -80 35 -121q54 -34 227 -56.5t341 -35.5t198 -25q4 -96 -16 -212t-53 -140
q-313 0 -641 41q-348 42 -627 135q-56 68 -77.5 230.5t-8.5 364.5q12 198 55 376t105 270zM711 854q172 -6 383 47q10 152 -33 234q-20 -2 -64.5 -4t-69.5 -4.5t-68 -13t-87 -28.5q-15 -48 -35 -105q-15 -42 -26 -126zM623 1882q147 75 325 75q65 -208 130 -305
q-99 -36 -200 -41q-64 43 -129 120q-79 94 -126 151z" />
    <glyph glyph-name="eacute" unicode="&#xe9;" horiz-adv-x="1771" 
d="M240 1370q55 30 158 55q195 50 507 83q135 16 265 22q129 6 218 2q97 -5 130 -19q90 -158 136 -404t40 -491q-57 -9 -183 -22q-133 -14 -255 -23q-138 -11 -285 -18q-144 -7 -269 -12q8 -80 35 -121q54 -34 227 -56.5t341 -35.5t198 -25q4 -96 -16 -212t-53 -140
q-313 0 -641 41q-348 42 -627 135q-56 68 -77.5 230.5t-8.5 364.5q12 198 55 376t105 270zM711 854q172 -6 383 47q10 152 -33 234q-20 -2 -64.5 -4t-69.5 -4.5t-68 -13t-87 -28.5q-15 -48 -35 -105q-15 -42 -26 -126zM769 1653q18 27 34.5 61t31.5 71t24.5 63.5t22.5 64
t16 46.5q180 0 327 -75q-57 -70 -127 -152q-64 -76 -129 -120q-122 8 -200 41z" />
    <glyph glyph-name="ecircumflex" unicode="&#xea;" horiz-adv-x="1771" 
d="M240 1370q55 30 158 55q195 50 507 83q135 16 265 22q129 6 218 2q97 -5 130 -19q90 -158 136 -404t40 -491q-57 -9 -183 -22q-133 -14 -255 -23q-138 -11 -285 -18q-144 -7 -269 -12q8 -80 35 -121q54 -34 227 -56.5t341 -35.5t198 -25q4 -96 -16 -212t-53 -140
q-313 0 -641 41q-348 42 -627 135q-56 68 -77.5 230.5t-8.5 364.5q12 198 55 376t105 270zM711 854q172 -6 383 47q10 152 -33 234q-20 -2 -64.5 -4t-69.5 -4.5t-68 -13t-87 -28.5q-15 -48 -35 -105q-15 -42 -26 -126zM568 1611q25 70 75.5 165.5t102.5 174.5q61 7 313 7
q76 -140 198 -330q-27 -2 -84 -8t-95 -9.5t-45 -0.5q-11 21 -30.5 51.5t-41 61.5t-24.5 35q-1 1 -3.5 5t-4.5 7.5t-5.5 6t-7.5 2.5q-16 0 -31 -25q-66 -98 -89 -149q-119 -10 -228 6z" />
    <glyph glyph-name="edieresis" unicode="&#xeb;" horiz-adv-x="1771" 
d="M240 1370q55 30 158 55q195 50 507 83q135 16 265 22q129 6 218 2q97 -5 130 -19q90 -158 136 -404t40 -491q-57 -9 -183 -22q-133 -14 -255 -23q-138 -11 -285 -18q-144 -7 -269 -12q8 -80 35 -121q54 -34 227 -56.5t341 -35.5t198 -25q4 -96 -16 -212t-53 -140
q-313 0 -641 41q-348 42 -627 135q-56 68 -77.5 230.5t-8.5 364.5q12 198 55 376t105 270zM411 1900q5 33 24 62t40.5 46t55.5 33.5t51.5 22.5t45.5 15q36 8 93 -12t94 -48q54 -196 37 -360q-20 -54 -121.5 -89t-201.5 -30.5t-118 49.5q-14 62 -12 153.5t12 157.5zM711 854
q172 -6 383 47q10 152 -33 234q-20 -2 -64.5 -4t-69.5 -4.5t-68 -13t-87 -28.5q-15 -48 -35 -105q-15 -42 -26 -126zM1079 1905q7 50 46.5 88.5t78 55t74.5 23.5q36 8 87 -11q54 -20 85 -44q50 -173 34 -344q-13 -38 -75 -67q-60 -27 -130 -39q-72 -11 -129 -1
q-59 11 -71 46q-13 36 -11 142q1 37 11 151z" />
    <glyph glyph-name="igrave" unicode="&#xec;" horiz-adv-x="806" 
d="M154 1466q75 15 181 22t167 8t178 1q0 -589 -43 -1458q-24 -13 -89 -20q-63 -7 -139 -12q-82 -5 -142 -5q-59 0 -97 2q-24 342 -26 746q-1 133 1 381q2 187 9 335zM148 1855q147 75 325 75q65 -208 130 -305q-99 -36 -200 -41q-65 44 -129 120q-79 94 -126 151z" />
    <glyph glyph-name="iacute" unicode="&#xed;" horiz-adv-x="806" 
d="M154 1466q75 15 181 22t167 8t178 1q0 -589 -43 -1458q-24 -13 -89 -20q-63 -7 -139 -12q-82 -5 -142 -5q-59 0 -97 2q-24 342 -26 746q-1 133 1 381q2 187 9 335zM274 1626q18 27 34.5 61t31.5 71t24.5 63.5t22.5 64t16 46.5q180 0 327 -75q-57 -70 -127 -152
q-65 -77 -129 -120q-122 8 -200 41z" />
    <glyph glyph-name="icircumflex" unicode="&#xee;" horiz-adv-x="806" 
d="M-12 1653q32 105 95 242t130 249q50 9 201 11q109 4 192 -3q5 -10 106.5 -205.5t143.5 -271.5q-39 -2 -107.5 -9.5t-116.5 -12.5t-59 -2q-14 31 -38.5 75t-49.5 86.5t-32 55.5q-1 1 -5.5 8.5t-10 12.5t-11.5 5q-18 0 -39 -34q-82 -137 -113 -215q-149 -18 -286 8z
M154 1466q75 15 181 22t167 8t178 1q0 -589 -43 -1458q-24 -13 -89 -20q-63 -7 -139 -12q-82 -5 -142 -5q-59 0 -97 2q-24 342 -26 746q-1 133 1 381q2 187 9 335z" />
    <glyph glyph-name="idieresis" unicode="&#xef;" horiz-adv-x="806" 
d="M-29 1931q7 41 43.5 73.5t68 46t64.5 22.5q29 7 76 -9.5t76 -40.5q45 -164 31 -286q-17 -43 -99.5 -71t-164 -24t-95.5 41q-16 53 0 248zM170 4q-24 342 -26 746q-2 425 10 716q24 5 51 9t50 7t55 5.5t52.5 4t56.5 2.5t53 1.5t56 1t51 0.5h53h48q0 -585 -43 -1458
q-24 -13 -89 -20q-63 -7 -139 -12q-82 -5 -142 -5q-59 0 -97 2zM514 1933q7 56 58 90t102 45q29 8 71 -9q42 -16 68 -36q40 -140 29 -274q-12 -32 -61 -54q-46 -22 -104 -31q-54 -9 -105 -1q-47 7 -58 35q-21 56 0 235z" />
    <glyph glyph-name="ntilde" unicode="&#xf1;" horiz-adv-x="1904" 
d="M115 1452q31 27 360.5 56.5t429.5 11.5q28 -78 66.5 -171.5t62 -147t79 -175.5t69.5 -152q9 -21 29.5 -27.5t42.5 7.5t32 47q2 16 5 79q4 88 5 160q1 59 5 182q5 92 6 142q226 52 473 35q9 -821 -11 -1446q-417 -55 -720 -61q-167 245 -334 635q-11 24 -36.5 32.5
t-49.5 -8t-29 -53.5q-29 -249 -10 -586q-212 -56 -455 -18q-21 156 -28 677q-4 504 8 781zM354 1641q185 311 328 360q26 11 55.5 12.5t60.5 -5.5t61.5 -19t65.5 -29.5t66 -33.5t69 -35t70 -31q68 -29 162 43q36 31 76 80q118 -47 170 -129q-4 -5 -69 -86q-50 -63 -109 -123
q-63 -64 -124 -107q-62 -45 -112 -43q-57 5 -126 31q-14 5 -63 24t-75 29q-46 19 -65.5 26.5t-51 19t-49 14.5t-27.5 0q-28 -11 -67 -47q-41 -40 -72 -76q-136 56 -174 125z" />
    <glyph glyph-name="ograve" unicode="&#xf2;" horiz-adv-x="1802" 
d="M92 1196q19 19 84.5 90.5t120.5 126t86 74.5q61 4 226 17q132 12 274 18q133 6 281 4q136 -1 245 -23q79 -62 150 -160q56 -74 133 -184q7 -99 11 -208q6 -166 7 -251q2 -166 1 -235q-2 -107 -9 -158q-21 -26 -104 -136.5t-134 -168.5q-101 -19 -247 -26q-149 -9 -311 -9
q-173 0 -323 7q-151 6 -280 20q-52 52 -121 161.5t-98 184.5q-2 83 -2 441q0 197 10 415zM690 356q87 -39 213.5 -24t190.5 67q2 60 4.5 184.5t3.5 156.5q4 188 -21 384q-23 -1 -79 -2t-80.5 -2.5t-66 -6t-75 -14.5t-67.5 -26q-11 -22 -17.5 -91.5t-8 -165.5t-1 -179.5
t2 -173t1.5 -107.5zM613 1873q147 75 325 75q65 -208 130 -305q-99 -36 -200 -41q-64 44 -129 120q-79 94 -126 151z" />
    <glyph glyph-name="oacute" unicode="&#xf3;" horiz-adv-x="1802" 
d="M92 1196q19 19 84.5 90.5t120.5 126t86 74.5q61 4 226 17q132 12 274 18q133 6 281 4q136 -1 245 -23q79 -62 150 -160q56 -74 133 -184q7 -99 11 -208q6 -166 7 -251q2 -166 1 -235q-2 -107 -9 -158q-21 -26 -104 -136.5t-134 -168.5q-101 -19 -247 -26q-149 -9 -311 -9
q-173 0 -323 7q-151 6 -280 20q-52 52 -121 161.5t-98 184.5q-2 83 -2 441q0 197 10 415zM690 356q87 -39 213.5 -24t190.5 67q2 60 4.5 184.5t3.5 156.5q4 188 -21 384q-23 -1 -79 -2t-80.5 -2.5t-66 -6t-75 -14.5t-67.5 -26q-11 -22 -17.5 -91.5t-8 -165.5t-1 -179.5
t2 -173t1.5 -107.5zM718 1643q18 27 34.5 61t31.5 71t24.5 63.5t22.5 64t16 46.5q180 0 327 -75q-57 -70 -127 -152q-65 -76 -129 -120q-122 8 -200 41z" />
    <glyph glyph-name="ocircumflex" unicode="&#xf4;" horiz-adv-x="1802" 
d="M92 1196q19 19 84.5 90.5t120.5 126t86 74.5q61 4 226 17q132 12 274 18q133 6 281 4q136 -1 245 -23q79 -62 150 -160q56 -74 133 -184q7 -99 11 -208q6 -166 7 -251q2 -166 1 -235q-2 -107 -9 -158q-21 -26 -104 -136.5t-134 -168.5q-101 -19 -247 -26q-149 -9 -311 -9
q-173 0 -323 7q-151 6 -280 20q-52 52 -121 161.5t-98 184.5q-2 83 -2 441q0 197 10 415zM690 356q87 -39 213.5 -24t190.5 67q2 60 4.5 184.5t3.5 156.5q4 188 -21 384q-23 -1 -79 -2t-80.5 -2.5t-66 -6t-75 -14.5t-67.5 -26q-11 -22 -17.5 -91.5t-8 -165.5t-1 -179.5
t2 -173t1.5 -107.5zM559 1605q25 70 75.5 165.5t102.5 174.5q61 7 313 7q76 -140 198 -330q-27 -2 -84 -8t-95 -9.5t-45 -0.5q-11 21 -30.5 51.5t-41 61.5t-24.5 35q-1 1 -3.5 5t-4.5 7.5t-5.5 6t-7.5 2.5q-16 0 -31 -25q-66 -98 -89 -149q-119 -10 -228 6z" />
    <glyph glyph-name="otilde" unicode="&#xf5;" horiz-adv-x="1802" 
d="M92 1196q19 19 84.5 90.5t120.5 126t86 74.5q61 4 226 17q132 12 274 18q133 6 281 4q136 -1 245 -23q79 -62 150 -160q56 -74 133 -184q7 -99 11 -208q6 -166 7 -251q2 -166 1 -235q-2 -107 -9 -158q-21 -26 -104 -136.5t-134 -168.5q-101 -19 -247 -26q-149 -9 -311 -9
q-173 0 -323 7q-151 6 -280 20q-52 52 -121 161.5t-98 184.5q-2 83 -2 441q0 197 10 415zM690 356q87 -39 213.5 -24t190.5 67q2 60 4.5 184.5t3.5 156.5q4 188 -21 384q-23 -1 -79 -2t-80.5 -2.5t-66 -6t-75 -14.5t-67.5 -26q-11 -22 -17.5 -91.5t-8 -165.5t-1 -179.5
t2 -173t1.5 -107.5zM577 1712q111 182 190 209q18 8 38.5 7.5t40 -6t44 -16.5t44.5 -22t46.5 -24t47.5 -21q40 -16 94 25q22 19 44 47q69 -28 99 -75q-166 -214 -241 -209q-12 1 -26.5 4t-32 9t-29.5 10.5t-34 13.5t-31 12q-95 39 -112 35q-33 -13 -81 -72q-80 33 -101 73z
" />
    <glyph glyph-name="odieresis" unicode="&#xf6;" horiz-adv-x="1802" 
d="M92 1196q19 19 84.5 90.5t120.5 126t86 74.5q61 4 226 17q132 12 274 18q133 6 281 4q136 -1 245 -23q79 -62 150 -160q56 -74 133 -184q7 -99 11 -208q6 -166 7 -251q2 -166 1 -235q-2 -107 -9 -158q-21 -26 -104 -136.5t-134 -168.5q-101 -19 -247 -26q-149 -9 -311 -9
q-173 0 -323 7q-151 6 -280 20q-52 52 -121 161.5t-98 184.5q-2 83 -2 441q0 197 10 415zM387 1900q5 33 24 62t40.5 46t55.5 33.5t51.5 22.5t45.5 15q36 8 93 -12t94 -48q54 -196 37 -360q-20 -54 -121.5 -89t-201.5 -30.5t-118 49.5q-14 62 -12 153.5t12 157.5zM690 356
q87 -39 213.5 -24t190.5 67q2 60 4.5 184.5t3.5 156.5q4 188 -21 384q-23 -1 -79 -2t-80.5 -2.5t-66 -6t-75 -14.5t-67.5 -26q-11 -22 -17.5 -91.5t-8 -165.5t-1 -179.5t2 -173t1.5 -107.5zM1055 1905q7 50 46.5 88.5t78 55t74.5 23.5q36 8 87 -11q54 -20 85 -44
q50 -173 34 -344q-13 -38 -75 -67q-60 -27 -130 -39q-72 -11 -129 -1q-59 11 -71 46q-13 36 -11 142q1 37 11 151z" />
    <glyph glyph-name="divide" unicode="&#xf7;" horiz-adv-x="1105" 
d="M133 629q-25 133 -20.5 265t26.5 216q151 11 429 14t423 -10q14 -82 19 -221.5t-6 -218.5q-104 -8 -409 -17t-462 -28zM334 346q7 44 56 80t96 52t87 22q37 9 100.5 -9t104.5 -42q61 -163 43 -316q-22 -46 -134 -76t-223 -25.5t-130 44.5q-12 24 -13.5 80.5t3 103
t10.5 86.5zM338 1604q6 37 32.5 68t64 49.5t69 29.5t59.5 16q35 10 95.5 -8t101.5 -45q57 -179 39 -336q-13 -39 -79 -66t-154 -40q-77 -12 -145.5 0t-82.5 41q-30 78 0 291z" />
    <glyph glyph-name="oslash" unicode="&#xf8;" horiz-adv-x="1802" 
d="M92 1221q21 20 85 90t119.5 125.5t86.5 74.5q25 2 176 14t271.5 18.5t230.5 6.5q12 21 42 78t48 88q128 14 259 -5.5t187 -39.5q-59 -97 -114 -213q28 -28 59.5 -67.5t50.5 -66t53.5 -76t45.5 -64.5q7 -99 11 -208q6 -166 7 -251q2 -166 1 -235q-2 -107 -9 -158
q-19 -24 -103 -136t-135 -169q-182 -33 -651 -33q-11 -26 -30 -72.5t-27 -66.5q-92 -14 -192 -10t-158.5 11t-90.5 15q29 71 54 141q-11 2 -33 3t-33 3q-52 52 -121 162t-98 185q-2 83 -2 441q0 197 10 415zM686 786q113 247 162 349q-64 -7 -135 -37q-27 -64 -27 -312z
M971 369q73 16 123 55q2 41 4.5 124.5t3.5 119.5q-81 -174 -131 -299z" />
    <glyph glyph-name="ugrave" unicode="&#xf9;" horiz-adv-x="1777" 
d="M125 1444q147 18 285 21q140 3 297 -15q-39 -510 2 -1030q52 -20 124 -24.5t146 11.5t115 52q0 75 -5 508t1 485q150 29 293 29q163 0 300 4q-1 -29 -5 -208t-5 -258t-3 -223t-1 -249t4 -191q-21 -65 -89 -163t-140 -179q-77 -1 -240.5 -7.5t-295.5 -11.5t-293.5 -4.5
t-276.5 9.5q-53 53 -123.5 159t-93.5 173q0 61 -6 329.5t-5 479t15 303.5zM632 1813q147 75 325 75q65 -208 130 -305q-99 -36 -200 -41q-65 44 -129 120q-79 94 -126 151z" />
    <glyph glyph-name="uacute" unicode="&#xfa;" horiz-adv-x="1777" 
d="M125 1444q147 18 285 21q140 3 297 -15q-39 -510 2 -1030q52 -20 124 -24.5t146 11.5t115 52q0 75 -5 508t1 485q150 29 293 29q163 0 300 4q-1 -29 -5 -208t-5 -258t-3 -223t-1 -249t4 -191q-21 -65 -89 -163t-140 -179q-77 -1 -240.5 -7.5t-295.5 -11.5t-293.5 -4.5
t-276.5 9.5q-53 53 -123.5 159t-93.5 173q0 61 -6 329.5t-5 479t15 303.5zM771 1583q18 27 34.5 61t31.5 71t24.5 63.5t22.5 64t16 46.5q180 0 327 -75q-57 -70 -127 -152q-64 -76 -129 -120q-122 8 -200 41z" />
    <glyph glyph-name="ucircumflex" unicode="&#xfb;" horiz-adv-x="1777" 
d="M125 1444q147 18 285 21q140 3 297 -15q-39 -510 2 -1030q52 -20 124 -24.5t146 11.5t115 52q0 75 -5 508t1 485q150 29 293 29q163 0 300 4q-1 -29 -5 -208t-5 -258t-3 -223t-1 -249t4 -191q-21 -65 -89 -163t-140 -179q-77 -1 -240.5 -7.5t-295.5 -11.5t-293.5 -4.5
t-276.5 9.5q-53 53 -123.5 159t-93.5 173q0 61 -6 329.5t-5 479t15 303.5zM393 1497q39 108 114.5 251t153.5 261q70 9 243.5 11t227.5 -1q145 -259 299 -497q-41 -3 -127 -12t-143 -14t-68 -1q-28 55 -145 223l-4 8q-5 7 -7.5 11t-8 8t-11.5 4q-24 0 -47 -37
q-98 -145 -133 -225q-128 -6 -217 -1.5t-127 11.5z" />
    <glyph glyph-name="udieresis" unicode="&#xfc;" horiz-adv-x="1777" 
d="M125 1444q147 18 285 21q140 3 297 -15q-39 -510 2 -1030q52 -20 124 -24.5t146 11.5t115 52q0 75 -5 508t1 485q150 29 293 29q163 0 300 4q-1 -29 -5 -208t-5 -258t-3 -223t-1 -249t4 -191q-21 -65 -89 -163t-140 -179q-77 -1 -240.5 -7.5t-295.5 -11.5t-293.5 -4.5
t-276.5 9.5q-53 53 -123.5 159t-93.5 173q0 61 -6 329.5t-5 479t15 303.5zM368 1853q5 33 24 62t40.5 46t55.5 33.5t51.5 22.5t45.5 15q36 8 93 -12t94 -48q54 -196 37 -360q-20 -54 -121.5 -89t-201.5 -30.5t-118 49.5q-14 62 -12 153.5t12 157.5zM1036 1858
q7 50 46.5 88.5t78 55t74.5 23.5q36 8 87 -11q54 -20 85 -44q50 -173 34 -344q-13 -38 -75 -67q-60 -27 -130 -39q-72 -11 -129 -1q-59 11 -71 46q-13 36 -11 142q1 37 11 151z" />
    <glyph glyph-name="yacute" unicode="&#xfd;" horiz-adv-x="1777" 
d="M66 1497q151 13 332 24q115 6 145 7q66 2 78 -2q19 -68 107 -230q94 -169 101 -186q5 -16 31.5 -46t44.5 -30q31 0 51 21q22 23 27 35q27 49 102 201.5t123 230.5q124 11 236 6.5t180.5 -13t101.5 -18.5q-89 -128 -293 -460.5t-296 -469.5q-1 -55 -17 -553
q-58 -12 -135.5 -16.5t-125.5 -4t-148.5 4t-122.5 4.5q0 218 -13 584q-117 135 -295 448q-174 315 -214 463zM752 1653q18 27 34.5 61t31.5 71t24.5 63.5t22.5 64t16 46.5q180 0 327 -75q-57 -70 -127 -152q-65 -76 -129 -120q-122 8 -200 41z" />
    <glyph glyph-name="ydieresis" unicode="&#xff;" horiz-adv-x="1777" 
d="M66 1497q151 13 332 24q115 6 145 7q66 2 78 -2q19 -68 107 -230q94 -169 101 -186q5 -16 31.5 -46t44.5 -30q31 0 51 21q22 23 27 35q27 49 102 201.5t123 230.5q124 11 236 6.5t180.5 -13t101.5 -18.5q-89 -128 -293 -460.5t-296 -469.5q-1 -55 -17 -553
q-58 -12 -135.5 -16.5t-125.5 -4t-148.5 4t-122.5 4.5q0 218 -13 584q-117 135 -295 448q-174 315 -214 463zM362 1916q5 33 24 62t40.5 46t55.5 33.5t51.5 22.5t45.5 15q36 8 93 -12t94 -48q54 -196 37 -360q-20 -54 -121.5 -89t-201.5 -30.5t-118 49.5q-14 62 -12 153.5
t12 157.5zM1030 1921q7 50 46.5 88.5t78 55t74.5 23.5q36 8 87 -11q54 -20 85 -44q50 -173 34 -344q-13 -38 -75 -67q-60 -27 -130 -39q-72 -11 -129 -1q-59 11 -71 46q-13 36 -11 142q1 37 11 151z" />
    <glyph glyph-name="Abreve" unicode="&#x102;" horiz-adv-x="2078" 
d="M1385 2057l-2 -3q-28 -14 -93 -26.5t-128 -16.5q-38 -2 -72 -2q-134 0 -195 26q-25 34 -43.5 112t-18.5 141q0 32 8 56q16 3 64 5h59q1 0 2.5 0.5t2.5 0.5q12 0 38 -2.5t35 -3.5q0 -5 1 -9t2.5 -10.5t6 -31.5t9.5 -65q53 -10 96 -10q33 0 70 10l7 8q8 8 10 11.5t9 15
t14 28.5t17 42q40 0 99.5 -9.5t70.5 -21.5q-2 -76 -16.5 -132t-52.5 -113zM6 -31q99 -21 284.5 -20.5t293.5 26.5q21 98 41 155t63 146q119 28 310 30h61q83 0 124 -1q93 -1 165 -12q6 -31 11 -55.5t11 -50t9.5 -40t12 -42.5t12 -40t15.5 -48.5t17 -53.5q27 -1 88 -1h50
q295 4 488 44q-33 245 -82.5 523.5t-79 425t-105.5 501.5t-93 438q-121 35 -404 44q-96 2 -145 3q-70 0 -106 -1q-109 -1 -249 -10q-217 -12 -384 -50q-18 -34 -34 -93.5t-33.5 -140.5t-24.5 -110q11 -5 79 -23q27 -5 58 -6q-62 -171 -136 -389q-86 -258 -136 -422
q-65 -212 -114 -402q-49 -187 -67 -325zM838 780q-3 45 74.5 304.5t99.5 304.5q22 49 54 55q1 1 5 1q28 0 51 -56q39 -93 74.5 -275.5t48.5 -331.5q-35 -10 -189 -16q-13 -1 -42 -1q-40 0 -81 3q-61 5 -95 12z" />
    <glyph glyph-name="abreve" unicode="&#x103;" 
d="M1166 1693l-2 -3q-28 -14 -93 -26.5t-128 -16.5q-38 -2 -72 -2q-134 0 -195 26q-25 34 -43.5 112t-18.5 141q0 32 8 56q16 3 64 5h59q1 0 2.5 0.5t2.5 0.5q12 0 38 -2.5t35 -3.5q0 -5 1 -9t2.5 -10.5t6 -31.5t9.5 -65q53 -10 96 -10q33 0 70 10l8 8q7 8 9 11.5t9 15
t14 28.5t17 42q40 0 99.5 -9.5t70.5 -21.5q-2 -76 -16.5 -132t-52.5 -113zM63 317q51 -128 226 -358q71 -13 171 -17q64 -3 136 -3q58 0 89 1q250 6 512.5 35.5t404.5 69.5q5 74 10 219q3 104 3 215v57q-3 330 -35.5 592t-102.5 351q-268 73 -567 81q-66 2 -102 2
q-96 0 -192 -6q-126 -6 -286 -22q-26 -24 -44 -97.5t-24 -162.5q-3 -38 -3 -72q0 -23 1 -33q116 0 184 1h41q81 0 161 -3q231 -9 315 -61q4 -7 8 -24t8.5 -41t7.5 -35q-291 -49 -463 -91q-113 -26 -202 -54q-91 -27 -140 -58q-47 -92 -80 -222q-32 -128 -37 -264zM688 458
v18q-1 24 4 56q6 37 21 62q74 37 150 46q90 13 157 26q3 -69 5 -197.5t3 -151.5q-109 -10 -188 -15q-11 -1 -30 -1q-59 0 -95 16q-23 68 -27 141z" />
    <glyph glyph-name="Dcroat" unicode="&#x110;" horiz-adv-x="2162" 
d="M223 1477l-145 10q0 128 28 436q156 24 390 41q220 16 450 18q48 0 72 1q185 1 376 -11q211 -13 384 -49q32 -30 61 -61.5t48.5 -56t45 -64.5t38.5 -62t43.5 -74.5t45.5 -78.5q18 -134 11 -553.5t-31 -560.5q-14 -21 -74 -112.5t-89.5 -133.5t-81.5 -105t-97 -100
q-369 -41 -662 -45q-27 -1 -80 -1q-109 0 -198 4q-321 12 -529 63q-12 138 -15 324q-2 148 -2 229q0 104 1 159v25q-70 -4 -105 -7q-21 54 -23.5 124.5t6.5 122.5t23 92q50 4 103 5q0 29 1 44q4 292 5 377zM883 446q104 -28 240 -28t218 28q69 204 74 499v41q-1 107 -9 208
q-11 124 -28 199q-79 71 -242 79q-6 0 -18.5 0.5t-18.5 1.5q-56 0 -103 -10q-69 -12 -117 -37q-3 -54 -4 -107q-1 -28 -1.5 -90.5t-0.5 -94.5q-1 -24 -1 -73q100 -2 159 -6q15 -57 19 -156.5t-9 -154.5q-112 -6 -169 -8v-41q0 -100 3 -170q5 -72 8 -80z" />
    <glyph glyph-name="dcroat" unicode="&#x111;" horiz-adv-x="1898" 
d="M965 1717q66 5 189 6q0 7 0.5 20.5t1.5 20.5q5 105 5 120q59 26 138 33q57 6 116 6q30 0 45 -1q172 -6 287 -50v-147q19 0 38.5 -1t38.5 -2t28 -1q14 -53 18 -137.5t-9 -134.5q-76 -4 -114 -5q1 -10 1 -29v-503q-1 -254 -6 -496q-4 -226 -22 -434q-193 -49 -475 -61
q-78 -3 -156 -3q-62 0 -93 1q-214 6 -597 48q-87 75 -164 189q-90 136 -143 219q-14 83 0 203q13 119 50 248q36 125 90 238q56 114 122 177q32 6 169.5 36t214.5 42q108 18 200 25q67 5 121 5q43 0 86 -3v84q-104 -3 -186 -10q-20 48 -22.5 109t6 106.5t22.5 81.5zM714 594
q-5 -49 -7 -104q0 -73 14 -140q74 -24 196.5 -24t217.5 24q7 15 8 88q1 33 1 106v59q-2 91 -3 177q-1 41 -4 123q-74 20 -157 20q-21 0 -30 -1q-102 -4 -186 -45q-33 -139 -50 -283z" />
    <glyph glyph-name="Itilde" unicode="&#x128;" horiz-adv-x="897" 
d="M143 2026q111 182 190 209q18 8 38.5 7.5t40 -6t44 -16.5t44.5 -22t46.5 -24t47.5 -21q40 -16 94 25q22 19 44 47q69 -28 99 -75q-166 -214 -241 -209q-12 1 -26.5 4t-32 9t-29.5 10.5t-34 13.5t-31 12q-95 39 -112 35q-33 -13 -81 -72q-80 33 -101 73zM161 922v157
q0 206 1 307q1 209 8 416q37 9 78 15.5t89.5 10.5t82.5 6.5t92 3.5t81.5 1h87h75.5q0 -831 -49 -1790q-46 -27 -240 -39t-279 -4q-25 440 -27 916z" />
    <glyph glyph-name="itilde" unicode="&#x129;" horiz-adv-x="806" 
d="M144 688q-1 44 -1 130q0 266 11 525q75 15 181 22t167 8t178 1q0 -561 -43 -1335q-24 -13 -89 -20q-63 -7 -139 -12q-82 -5 -142 -5q-59 0 -97 2q-23 343 -26 684zM83 1560q111 182 190 209q18 8 38.5 7.5t40 -6t44 -16.5t44.5 -22t46.5 -24t47.5 -21q40 -16 94 25
q22 19 44 47q69 -28 99 -75q-166 -214 -241 -209q-12 1 -26.5 4t-32 9t-29.5 10.5t-34 13.5t-31 12q-95 39 -112 35q-33 -13 -81 -72q-80 33 -101 73z" />
    <glyph glyph-name="OE" unicode="&#x152;" horiz-adv-x="2785" 
d="M106 1532q37 41 74 89q42 54 94 116q55 65 96 110q48 53 76 68q92 10 237 16q153 7 287 8q314 6 580 0q90 -1 523 -3.5t606 -8.5q31 -90 16 -383q-169 -8 -311 -4q-146 4 -309 -10q-37 -48 -44 -181.5t23 -205.5q33 -3 134 -1t244 1.5t189 -6.5q9 -93 13 -160
q6 -88 -4 -158q-70 -8 -273 -10t-307 -25q-18 -36 -21.5 -113.5t2.5 -146t15 -118.5q47 -14 128 -17q83 -2 176 0q32 1 93 2.5t89 1.5q93 2 147 -4q39 -231 -4 -399q-189 -20 -523 -27t-452 -14q-200 -12 -411.5 -19.5t-488 -4t-446.5 25.5q-62 70 -142 213.5t-114 243.5
q-2 125 -3 274q-2 152 0 304q2 380 11 546zM805 412q100 -51 249.5 -31.5t223.5 88.5q1 42 4 163.5t4 194t0.5 182.5t-6 212t-16.5 200q-30 -1 -93 -3t-93.5 -4t-78.5 -8.5t-87.5 -19.5t-80.5 -34q-30 -76 -30 -452q-1 -114 4 -488z" />
    <glyph glyph-name="oe" unicode="&#x153;" horiz-adv-x="2846" 
d="M92 1198q22 21 85.5 91.5t119 126.5t86.5 73q34 3 110 9t116 9q146 12 274 17q133 6 281 4q136 -1 245 -23q23 -16 76 -67q281 57 623.5 84t445.5 -9q93 -156 138.5 -401t39.5 -494q-57 -9 -183 -22q-130 -14 -256 -23q-142 -11 -284 -18q-145 -7 -270 -12q8 -82 35 -121
q54 -34 226 -56.5t340.5 -35.5t199.5 -25q3 -96 -17 -212t-53 -140q-486 0 -969 96l-37 -45q-92 -16 -247 -25q-141 -10 -311 -10q-173 0 -323 7q-163 6 -280 22q-51 51 -120.5 161t-98.5 185q-2 122 -2 208v231q0 201 10 415zM690 358q87 -37 214 -22t190 67q2 59 4.5 185
t3.5 155q4 189 -21 385q-37 -3 -99 -5t-96 -4.5t-82 -13t-91 -30.5q-40 -78 -23 -717zM1747 854q172 -6 383 47q10 154 -33 234q-20 -2 -64.5 -4t-69.5 -4.5t-68 -13t-87 -28.5q-18 -63 -34 -105q-16 -46 -27 -126z" />
    <glyph glyph-name="Utilde" unicode="&#x168;" horiz-adv-x="1994" 
d="M682 2026q111 182 190 209q18 8 38.5 7.5t40 -6t44 -16.5t44.5 -22t46.5 -24t47.5 -21q40 -16 94 25q22 19 44 47q69 -28 99 -75q-166 -214 -241 -209q-12 1 -26.5 4t-32 9t-29.5 10.5t-34 13.5t-31 12q-95 39 -112 35q-33 -13 -81 -72q-80 33 -101 73zM122 1130v269
q2 288 17 405q164 20 317 24q18 1 55 1q125 0 273 -17q-14 -197 -18 -368q-3 -137 -3 -266v-63q1 -198 23 -589q43 -21 100 -28q36 -5 73 -6q15 0 47 2q146 15 208 81q0 115 -3.5 574.5t-0.5 667.5q160 37 323 37h4q44 0 65 -1q86 0 268 2q-1 -110 -5 -339t-6.5 -390
t-3 -356t4.5 -326q-25 -81 -101.5 -205.5t-152.5 -220.5q-117 -4 -273 -12q-192 -9 -322 -14q-166 -6 -332 -6q-160 0 -302 14q-58 62 -137.5 196t-106.5 218q0 73 -5 322.5t-6 393.5z" />
    <glyph glyph-name="utilde" unicode="&#x169;" horiz-adv-x="1777" 
d="M585 1647q111 182 190 209q18 8 38.5 7.5t40 -6t44 -16.5t44.5 -22t46.5 -24t47.5 -21q40 -16 94 25q22 19 44 47q69 -28 99 -75q-166 -214 -241 -209q-12 1 -26.5 4t-32 9t-29.5 10.5t-34 13.5t-31 12q-95 39 -112 35q-33 -13 -81 -72q-80 33 -101 73zM110 1048v70
q2 244 15 326q147 18 285 21h40q120 0 257 -15q-11 -145 -16 -295q-4 -100 -4 -217v-46q1 -207 22 -472q40 -14 90 -20q24 -3 73 -5q22 0 34 1q119 7 188 63q0 75 -5 508t1 485q150 29 293 29q163 0 300 4q-1 -29 -5 -208t-5 -258t-3 -223t-1 -249t4 -191q-21 -65 -89 -163
t-140 -179q-77 -1 -240.5 -7.5t-295.5 -11.5t-293.5 -4.5t-276.5 9.5q-53 53 -123.5 159t-93.5 173q0 70 -6 352q0 34 -1.5 106.5t-2.5 111.5q-1 49 -1 146z" />
    <glyph glyph-name="Ydieresis" unicode="&#x178;" horiz-adv-x="1880" 
d="M74 1686q62 3 177 11t191.5 13.5t161 8.5t86.5 -3q12 -50 46 -119t72 -138q42 -75 71 -127q32 -57 43 -85q9 -19 36 -51.5t48 -32.5q34 -1 57 24q25 28 31 38q65 121 120 244q58 128 129 245q183 14 347 1.5t229 -29.5q-105 -151 -332 -527.5t-323 -521.5
q-9 -385 -19 -623q-65 -12 -151.5 -16.5t-140 -4t-164.5 4t-136 4.5q0 98 -2 205t-6 245.5t-6 206.5q-125 145 -328 505q-117 213 -187 379q-37 88 -50 143zM410 2167q6 39 32 72.5t62 54t66.5 32.5t56.5 17q32 11 91 -10.5t95 -48.5q54 -190 39 -361q-17 -41 -82 -71
q-66 -29 -141 -41q-80 -11 -141 -1q-64 10 -78 48q-16 58 -14 150.5t14 158.5zM1077 2171q5 37 26.5 67t54 49t58 29.5t53.5 20.5q5 1 7 2q33 7 87.5 -11.5t84.5 -46.5q51 -170 35 -342q-19 -50 -112 -82t-185.5 -27.5t-108.5 46.5q-23 62 0 295z" />
    <glyph glyph-name="Ohorn" unicode="&#x1a0;" horiz-adv-x="2109" 
d="M109 1518q22 25 98 120.5t141 169t101 95.5q6 1 136.5 13t176.5 15t172.5 12.5t200 10t177.5 0.5t186.5 -8.5t150.5 -22.5q26 -24 40 -38q14 6 19 10q19 42 13 187q15 3 38 3q7 0 21 -0.5t41 -1t50 -0.5q93 -2 111 -4q8 -1 19.5 -3t15.5 -2q8 -55 1.5 -146t-27.5 -123
q-51 -21 -150 -27q-25 -2 -60 -3q15 -20 45 -62q75 -107 152 -245q5 -73 9 -170q8 -135 14 -430q7 -390 -10 -518q-29 -40 -124 -184.5t-155 -216.5q-224 -43 -651.5 -44.5t-704.5 34.5q-60 68 -142 213t-116 243q-2 164 -2 274q0 202 1 303q2 168 3 295q2 145 9 251z
M802 886v-201q2 -97 3 -173q2 -104 2 -115q47 -24 115 -32q30 -3 61 -3q41 0 73 4q148 18 224 91q0 13 4.5 198.5t5 260t-5 223t-18.5 268.5q-24 -1 -78.5 -2t-78.5 -1.5t-68 -4.5t-72 -10.5t-64.5 -18.5t-70.5 -29q-21 -44 -28 -255q-2 -67 -4 -200z" />
    <glyph glyph-name="ohorn" unicode="&#x1a1;" horiz-adv-x="1802" 
d="M92 1196q19 19 84.5 90.5t120.5 126t86 74.5q61 4 226 17q134 12 275 18q95 4 211 4h69q136 -1 245 -23q5 -5 8 -7q2 1 5 4q19 42 13 187q15 3 38 3q7 0 21 -0.5t41 -1t50 -0.5q93 -2 111 -4q8 -1 19.5 -3t15.5 -2q8 -55 1.5 -146t-27.5 -123q-51 -21 -150 -27
q-4 -1 -12.5 -1.5t-12.5 -0.5q16 -19 29 -38q56 -74 133 -184q7 -99 11 -208q6 -166 7 -251q1 -57 1 -161v-73q-1 -108 -9 -159q-21 -26 -104 -136.5t-134 -168.5q-101 -19 -247 -26q-149 -9 -311 -9q-173 0 -323 7q-151 6 -280 20q-52 52 -121 161.5t-98 184.5
q-2 126 -2 210v231q0 197 10 415zM690 356q46 -21 100 -25q34 -2 51 -2q31 0 63 3q123 13 190 67q2 60 4.5 185t3.5 156q1 17 1 52q0 166 -22 332q-23 -1 -79 -2t-80.5 -2.5t-66 -6t-75 -14.5t-67.5 -26q-27 -55 -27 -346v-154q0 -56 2 -130.5t2 -86.5z" />
    <glyph glyph-name="Uhorn" unicode="&#x1af;" horiz-adv-x="1994" 
d="M122 1130v269q2 288 17 405q164 20 317 24q18 1 55 1q125 0 273 -17q-14 -197 -18 -368q-3 -137 -3 -266v-63q1 -198 23 -589q43 -21 100 -28q36 -5 73 -6q15 0 47 2q146 15 208 81q0 115 -3.5 574.5t-0.5 667.5q160 37 323 37h4q44 0 65 -1h92q2 1 5 1q14 4 27 13
q19 42 13 187q15 3 38 3q7 0 21 -0.5t41 -1t50 -0.5q93 -2 111 -4q8 -1 19.5 -3t15.5 -2q8 -55 1.5 -146t-27.5 -123q-29 -12 -66 -18q-33 -6 -75 -9q0 -33 -1.5 -113.5t-2.5 -126.5q-16 -731 -4 -1066q-25 -81 -101.5 -205.5t-152.5 -220.5q-117 -4 -273 -12
q-192 -9 -322 -14q-166 -6 -332 -6q-160 0 -302 14q-58 62 -137.5 196t-106.5 218q0 73 -5 322.5t-6 393.5z" />
    <glyph glyph-name="uhorn" unicode="&#x1b0;" horiz-adv-x="1812" 
d="M110 1048v70q2 244 15 326q147 18 285 21h40q120 0 257 -15q-11 -145 -16 -295q-4 -100 -4 -217v-46q1 -207 22 -472q40 -14 90 -20q24 -3 73 -5q22 0 34 1q119 7 188 63q0 75 -5 508t1 485q150 29 293 29h121q15 3 27 6q14 4 27 13q19 42 13 187q15 3 38 3q7 0 21 -0.5
t41 -1t50 -0.5q93 -2 111 -4q8 -1 19.5 -3t15.5 -2q8 -55 1.5 -146t-27.5 -123q-51 -21 -150 -27q-3 -1 -10 -1q0 -25 -1.5 -83t-2.5 -91q-15 -546 -4 -852q-21 -65 -89 -163t-140 -179q-77 -1 -240.5 -7.5t-295.5 -11.5t-293.5 -4.5t-276.5 9.5q-53 53 -123.5 159
t-93.5 173q0 70 -6 352q0 34 -1.5 106.5t-2.5 111.5q-1 49 -1 146z" />
    <glyph glyph-name="circumflex" unicode="&#x2c6;" horiz-adv-x="1323" 
d="M170 1112q39 108 114.5 251t153.5 261q70 9 243.5 11t227.5 -1q145 -259 299 -497q-41 -3 -127 -12t-143 -14t-68 -1q-28 55 -145 223l-5 7q-4 8 -6.5 12t-8 8t-11.5 4q-24 0 -47 -37q-98 -145 -133 -225q-128 -6 -217 -1.5t-127 11.5z" />
    <glyph glyph-name="tilde" unicode="&#x2dc;" horiz-adv-x="1314" 
d="M78 1268q185 311 328 360q26 11 55.5 12.5t60.5 -5.5t61.5 -19t65.5 -29.5t66 -33.5t69 -35t70 -31q68 -29 162 43q36 31 76 80q118 -47 170 -129q-4 -5 -69 -86q-50 -63 -109 -123q-63 -64 -124 -107q-62 -45 -112 -43q-57 5 -126 31q-14 5 -63 24t-75 29
q-46 19 -65.5 26.5t-51 19t-49 14.5t-27.5 0q-28 -11 -67 -47q-41 -40 -72 -76q-136 56 -174 125z" />
    <glyph glyph-name="uni1EA0" unicode="&#x1ea0;" horiz-adv-x="2078" 
d="M798 -351q1 36 10 87q13 69 179 100q5 1 17 1t19 -1q72 -8 119 -35q18 -49 26 -96q7 -28 7 -59q0 -22 -3 -43q-14 -30 -103 -51q-49 -10 -80 -13q-32 -3 -58 -3q-15 0 -22 1q-84 2 -101 27q-8 17 -9 37q-2 18 -2 29q0 12 1 19zM6 -31q18 138 67 325q49 190 114 402
q50 164 136 422q74 218 136 389q-31 1 -58 6q-68 18 -79 23q7 29 24.5 110t33.5 140.5t34 93.5q167 38 384 50q140 9 249 10q36 1 106 1q49 -1 145 -3q283 -9 404 -44q17 -83 93 -438t105.5 -501.5t79 -425t82.5 -523.5q-193 -40 -488 -44h-50q-61 0 -88 1q-5 17 -17 53.5
t-15.5 48.5t-12 40t-12 42.5t-9.5 40t-11 50t-11 55.5q-72 11 -165 12q-41 1 -124 1h-61q-191 -2 -310 -30q-43 -89 -63 -146t-41 -155q-108 -26 -293.5 -26.5t-284.5 20.5zM838 780q34 -7 95 -12q41 -3 81 -3q29 0 42 1q154 6 189 16q-13 149 -48.5 331.5t-74.5 275.5
q-23 56 -51 56q-4 0 -5 -1q-32 -6 -54 -55q-22 -45 -99.5 -304.5t-74.5 -304.5z" />
    <glyph glyph-name="uni1EA1" unicode="&#x1ea1;" 
d="M650 -342q1 36 10 87q13 69 179 100q5 1 17 1t19 -1q72 -8 119 -35q18 -49 26 -96q7 -28 7 -59q0 -22 -3 -43q-14 -30 -103 -51q-49 -10 -80 -13q-32 -3 -58 -3q-15 0 -22 1q-84 2 -101 27q-8 17 -9 37q-2 18 -2 29q0 12 1 19zM63 317q5 136 37 264q33 130 80 222
q49 31 140 58q89 28 202 54q172 42 463 91q-3 11 -7.5 35t-8.5 41t-8 24q-84 52 -315 61q-80 3 -161 3h-41q-68 -1 -184 -1q-1 10 -1 33q0 34 3 72q6 89 24 162.5t44 97.5q160 16 286 22q96 6 192 6q36 0 102 -2q299 -8 567 -81q70 -89 102.5 -351t35.5 -592v-57
q0 -111 -3 -215q-5 -145 -10 -219q-142 -40 -404.5 -69.5t-512.5 -35.5q-31 -1 -89 -1q-72 0 -136 3q-100 4 -171 17q-175 230 -226 358zM688 476v-18q4 -73 27 -141q36 -16 95 -16q19 0 30 1q79 5 188 15q-1 23 -3 151.5t-5 197.5q-67 -13 -157 -26q-76 -9 -150 -46
q-15 -25 -21 -62q-5 -32 -4 -56z" />
    <glyph glyph-name="uni1EA2" unicode="&#x1ea2;" horiz-adv-x="2078" 
d="M910 2242q21 100 39 151q23 11 52 17q59 13 153 11q56 -1 108.5 -10t72.5 -19q12 -49 16 -98q3 -29 3 -70q2 -41 -3 -61q-20 -18 -66.5 -39.5t-56.5 -27.5q-10 -22 -8 -33q3 -7 -3 -36q-20 -6 -96 -11q-57 -4 -90 -4q-6 26 -6 50q0 2 1 11t2 21t1 19q6 5 21 20
q44 44 76 60q6 33 -2 61q-9 7 -47 8t-73 -4q-65 -6 -94 -16zM6 -31q18 138 67 325q49 190 114 402q50 164 136 422q74 218 136 389q-31 1 -58 6q-68 18 -79 23q7 29 24.5 110t33.5 140.5t34 93.5q167 38 384 50q140 9 249 10q36 1 106 1q49 -1 145 -3q283 -9 404 -44
q17 -83 93 -438t105.5 -501.5t79 -425t82.5 -523.5q-193 -40 -488 -44h-50q-61 0 -88 1q-5 17 -17 53.5t-15.5 48.5t-12 40t-12 42.5t-9.5 40t-11 50t-11 55.5q-72 11 -165 12q-41 1 -124 1h-61q-191 -2 -310 -30q-43 -89 -63 -146t-41 -155q-108 -26 -293.5 -26.5
t-284.5 20.5zM838 780q34 -7 95 -12q41 -3 81 -3q29 0 42 1q154 6 189 16q-13 149 -48.5 331.5t-74.5 275.5q-23 56 -51 56q-4 0 -5 -1q-32 -6 -54 -55q-22 -45 -99.5 -304.5t-74.5 -304.5z" />
    <glyph glyph-name="uni1EA3" unicode="&#x1ea3;" 
d="M766 1880q21 100 39 151q23 11 52 17q59 13 153 11q56 -1 108.5 -10t72.5 -19q12 -49 16 -98q3 -28 3 -70q2 -41 -3 -61q-20 -18 -66.5 -39.5t-56.5 -27.5q-10 -22 -8 -33q3 -7 -3 -36q-20 -6 -96 -11q-57 -4 -90 -4q-6 26 -6 50q0 2 1 11t2 21t1 19q6 5 21 20
q44 44 76 60q6 33 -2 61q-9 7 -46.5 8t-73.5 -4q-65 -6 -94 -16zM63 317q5 136 37 264q33 130 80 222q49 31 140 58q89 28 202 54q172 42 463 91q-3 11 -7.5 35t-8.5 41t-8 24q-84 52 -315 61q-80 3 -161 3h-41q-68 -1 -184 -1q-1 10 -1 33q0 34 3 72q6 89 24 162.5t44 97.5
q160 16 286 22q96 6 192 6q36 0 102 -2q299 -8 567 -81q70 -89 102.5 -351t35.5 -592v-57q0 -111 -3 -215q-5 -145 -10 -219q-142 -40 -404.5 -69.5t-512.5 -35.5q-31 -1 -89 -1q-72 0 -136 3q-100 4 -171 17q-175 230 -226 358zM688 476v-18q4 -73 27 -141q36 -16 95 -16
q19 0 30 1q79 5 188 15q-1 23 -3 151.5t-5 197.5q-67 -13 -157 -26q-76 -9 -150 -46q-15 -25 -21 -62q-5 -32 -4 -56z" />
    <glyph glyph-name="uni1EA4" unicode="&#x1ea4;" horiz-adv-x="2078" 
d="M1339 2282q18 27 34.5 61t31.5 71t24.5 63.5t22.5 64t16 46.5q180 0 327 -75q-57 -70 -127 -152q-64 -77 -129 -120q-122 8 -200 41zM6 -31q18 138 67 325q49 190 114 402q50 164 136 422q74 218 136 389q-31 1 -58 6q-68 18 -79 23q7 29 24.5 110t33.5 140.5t34 93.5
q167 38 384 50q140 9 249 10q36 1 106 1q49 -1 145 -3q283 -9 404 -44q17 -83 93 -438t105.5 -501.5t79 -425t82.5 -523.5q-193 -40 -488 -44h-50q-61 0 -88 1q-5 17 -17 53.5t-15.5 48.5t-12 40t-12 42.5t-9.5 40t-11 50t-11 55.5q-72 11 -165 12q-41 1 -124 1h-61
q-191 -2 -310 -30q-43 -89 -63 -146t-41 -155q-108 -26 -293.5 -26.5t-284.5 20.5zM838 780q34 -7 95 -12q41 -3 81 -3q29 0 42 1q154 6 189 16q-13 149 -48.5 331.5t-74.5 275.5q-23 56 -51 56q-4 0 -5 -1q-32 -6 -54 -55q-22 -45 -99.5 -304.5t-74.5 -304.5zM754 2019
q25 70 75.5 165.5t102.5 174.5q61 7 313 7q76 -140 198 -330q-27 -2 -84 -8t-95 -9.5t-45 -0.5q-11 21 -30.5 51.5t-41 61.5t-24.5 35q-1 1 -3.5 5t-4.5 7.5t-5.5 6t-7.5 2.5q-16 0 -31 -25q-66 -98 -89 -149q-119 -10 -228 6z" />
    <glyph glyph-name="uni1EA5" unicode="&#x1ea5;" 
d="M1180 1910q18 27 34.5 61t31.5 71t24.5 63.5t22.5 64t16 46.5q180 0 327 -75q-57 -70 -127 -152q-65 -77 -129 -120q-122 8 -200 41zM63 317q5 136 37 264q33 130 80 222q49 31 140 58q89 28 202 54q172 42 463 91q-3 11 -7.5 35t-8.5 41t-8 24q-84 52 -315 61
q-53 2 -386 2q-4 105 16 219t54 146q690 76 1147 -55q104 -131 129 -654q7 -147 9 -290q1 -273 -13 -490q-218 -63 -663 -93t-650 7q-175 230 -226 358zM595 1647q25 70 75.5 165.5t102.5 174.5q61 7 313 7q76 -140 198 -330q-27 -2 -84 -8t-95 -9.5t-45 -0.5
q-11 21 -30.5 51.5t-41 61.5t-24.5 35q-1 1 -3.5 5t-4.5 7.5t-5.5 6t-7.5 2.5q-16 0 -31 -25q-66 -98 -89 -149q-119 -10 -228 6zM715 317q13 -6 28 -9.5t37 -4.5t37 -1.5t47 1.5t47 3.5t57.5 5.5t59.5 5q-1 23 -3 151.5t-5 197.5q-67 -13 -157 -26q-76 -9 -150 -46
q-27 -63 -24 -136t26 -141z" />
    <glyph glyph-name="uni1EA6" unicode="&#x1ea6;" horiz-adv-x="2078" 
d="M1194 2511q147 75 325 75q65 -208 130 -305q-99 -36 -200 -41q-65 44 -129 120q-79 94 -126 151zM6 -31q18 138 67 325q49 190 114 402q50 164 136 422q74 218 136 389q-31 1 -58 6q-68 18 -79 23q7 29 24.5 110t33.5 140.5t34 93.5q167 38 384 50q140 9 249 10
q36 1 106 1q49 -1 145 -3q283 -9 404 -44q17 -83 93 -438t105.5 -501.5t79 -425t82.5 -523.5q-193 -40 -488 -44h-50q-61 0 -88 1q-5 17 -17 53.5t-15.5 48.5t-12 40t-12 42.5t-9.5 40t-11 50t-11 55.5q-72 11 -165 12q-41 1 -124 1h-61q-191 -2 -310 -30q-43 -89 -63 -146
t-41 -155q-108 -26 -293.5 -26.5t-284.5 20.5zM838 780q34 -7 95 -12q41 -3 81 -3q29 0 42 1q154 6 189 16q-13 149 -48.5 331.5t-74.5 275.5q-23 56 -51 56q-4 0 -5 -1q-32 -6 -54 -55q-22 -45 -99.5 -304.5t-74.5 -304.5zM754 2019q25 70 75.5 165.5t102.5 174.5
q61 7 313 7q76 -140 198 -330q-27 -2 -84 -8t-95 -9.5t-45 -0.5q-11 21 -30.5 51.5t-41 61.5t-24.5 35q-1 1 -3.5 5t-4.5 7.5t-5.5 6t-7.5 2.5q-16 0 -31 -25q-66 -98 -89 -149q-119 -10 -228 6z" />
    <glyph glyph-name="uni1EA7" unicode="&#x1ea7;" 
d="M1035 2139q147 75 325 75q65 -208 130 -305q-99 -36 -200 -41q-64 44 -129 120q-79 94 -126 151zM63 317q5 136 37 264q33 130 80 222q49 31 140 58q89 28 202 54q172 42 463 91q-3 11 -7.5 35t-8.5 41t-8 24q-84 52 -315 61q-53 2 -386 2q-4 105 16 219t54 146
q690 76 1147 -55q104 -131 129 -654q7 -147 9 -290q1 -273 -13 -490q-218 -63 -663 -93t-650 7q-175 230 -226 358zM595 1647q25 70 75.5 165.5t102.5 174.5q61 7 313 7q76 -140 198 -330q-27 -2 -84 -8t-95 -9.5t-45 -0.5q-11 21 -30.5 51.5t-41 61.5t-24.5 35q-1 1 -3.5 5
t-4.5 7.5t-5.5 6t-7.5 2.5q-16 0 -31 -25q-66 -98 -89 -149q-119 -10 -228 6zM715 317q13 -6 28 -9.5t37 -4.5t37 -1.5t47 1.5t47 3.5t57.5 5.5t59.5 5q-1 23 -3 151.5t-5 197.5q-67 -13 -157 -26q-76 -9 -150 -46q-27 -63 -24 -136t26 -141z" />
    <glyph glyph-name="uni1EA8" unicode="&#x1ea8;" horiz-adv-x="2078" 
d="M1244 2463q21 100 39 151q23 11 52 17q59 13 153 11q56 -1 108.5 -10t72.5 -19q12 -49 16 -98q3 -29 3 -70q2 -41 -3 -61q-20 -18 -66.5 -39.5t-56.5 -27.5q-10 -22 -8 -33q3 -8 -3 -36q-20 -6 -96 -11q-57 -4 -90 -4q-6 26 -6 50q0 2 1 11t2 21t1 19q6 5 21 20
q44 44 76 60q6 33 -2 61q-9 7 -47 8t-73 -4q-65 -6 -94 -16zM6 -31q18 138 67 325q49 190 114 402q50 164 136 422q74 218 136 389q-31 1 -58 6q-68 18 -79 23q7 29 24.5 110t33.5 140.5t34 93.5q167 38 384 50q140 9 249 10q36 1 106 1q49 -1 145 -3q283 -9 404 -44
q17 -83 93 -438t105.5 -501.5t79 -425t82.5 -523.5q-193 -40 -488 -44h-50q-61 0 -88 1q-5 17 -17 53.5t-15.5 48.5t-12 40t-12 42.5t-9.5 40t-11 50t-11 55.5q-72 11 -165 12q-41 1 -124 1h-61q-191 -2 -310 -30q-43 -89 -63 -146t-41 -155q-108 -26 -293.5 -26.5
t-284.5 20.5zM838 780q34 -7 95 -12q41 -3 81 -3q29 0 42 1q154 6 189 16q-13 149 -48.5 331.5t-74.5 275.5q-23 56 -51 56q-4 0 -5 -1q-32 -6 -54 -55q-22 -45 -99.5 -304.5t-74.5 -304.5zM754 2019q25 70 75.5 165.5t102.5 174.5q61 7 313 7q76 -140 198 -330
q-27 -2 -84 -8t-95 -9.5t-45 -0.5q-11 21 -30.5 51.5t-41 61.5t-24.5 35q-1 1 -3.5 5t-4.5 7.5t-5.5 6t-7.5 2.5q-16 0 -31 -25q-66 -98 -89 -149q-119 -10 -228 6z" />
    <glyph glyph-name="uni1EA9" unicode="&#x1ea9;" 
d="M1085 2091q21 100 39 151q23 11 52 17q59 13 153 11q56 -1 108.5 -10t72.5 -19q12 -49 16 -98q3 -29 3 -70q2 -41 -3 -61q-20 -18 -66.5 -39.5t-56.5 -27.5q-10 -22 -8 -33q3 -8 -3 -36q-20 -6 -96 -11q-57 -4 -90 -4q-6 26 -6 50q0 2 1 11t2 21t1 19q6 5 21 20
q44 44 76 60q6 33 -2 61q-9 7 -47 8t-73 -4q-65 -6 -94 -16zM63 317q5 136 37 264q33 130 80 222q49 31 140 58q89 28 202 54q172 42 463 91q-3 11 -7.5 35t-8.5 41t-8 24q-84 52 -315 61q-53 2 -386 2q-4 105 16 219t54 146q690 76 1147 -55q104 -131 129 -654
q7 -147 9 -290q1 -273 -13 -490q-218 -63 -663 -93t-650 7q-175 230 -226 358zM595 1647q25 70 75.5 165.5t102.5 174.5q61 7 313 7q76 -140 198 -330q-27 -2 -84 -8t-95 -9.5t-45 -0.5q-11 21 -30.5 51.5t-41 61.5t-24.5 35q-1 1 -3.5 5t-4.5 7.5t-5.5 6t-7.5 2.5
q-16 0 -31 -25q-66 -98 -89 -149q-119 -10 -228 6zM715 317q13 -6 28 -9.5t37 -4.5t37 -1.5t47 1.5t47 3.5t57.5 5.5t59.5 5q-1 23 -3 151.5t-5 197.5q-67 -13 -157 -26q-76 -9 -150 -46q-27 -63 -24 -136t26 -141z" />
    <glyph glyph-name="uni1EAA" unicode="&#x1eaa;" horiz-adv-x="2078" 
d="M772 2488q111 182 190 209q18 8 38.5 7.5t40 -6t44 -16.5t44.5 -22t46.5 -24t47.5 -21q40 -16 94 25q22 19 44 47q69 -28 99 -75q-166 -214 -241 -209q-12 1 -26.5 4t-32 9t-29.5 10.5t-34 13.5t-31 12q-95 39 -112 35q-33 -13 -81 -72q-80 33 -101 73zM6 -31
q18 138 67 325q49 190 114 402q50 164 136 422q74 218 136 389q-31 1 -58 6q-68 18 -79 23q7 29 24.5 110t33.5 140.5t34 93.5q167 38 384 50q140 9 249 10q36 1 106 1q49 -1 145 -3q283 -9 404 -44q17 -83 93 -438t105.5 -501.5t79 -425t82.5 -523.5q-193 -40 -488 -44h-50
q-61 0 -88 1q-5 17 -17 53.5t-15.5 48.5t-12 40t-12 42.5t-9.5 40t-11 50t-11 55.5q-72 11 -165 12q-41 1 -124 1h-61q-191 -2 -310 -30q-43 -89 -63 -146t-41 -155q-108 -26 -293.5 -26.5t-284.5 20.5zM838 780q34 -7 95 -12q41 -3 81 -3q29 0 42 1q154 6 189 16
q-13 149 -48.5 331.5t-74.5 275.5q-23 56 -51 56q-4 0 -5 -1q-32 -6 -54 -55q-22 -45 -99.5 -304.5t-74.5 -304.5zM754 2019q25 70 75.5 165.5t102.5 174.5q61 7 313 7q76 -140 198 -330q-27 -2 -84 -8t-95 -9.5t-45 -0.5q-11 21 -30.5 51.5t-41 61.5t-24.5 35q-1 1 -3.5 5
t-4.5 7.5t-5.5 6t-7.5 2.5q-16 0 -31 -25q-66 -98 -89 -149q-119 -10 -228 6z" />
    <glyph glyph-name="uni1EAB" unicode="&#x1eab;" 
d="M613 2116q111 182 190 209q18 8 38.5 7.5t40 -6t44 -16.5t44.5 -22t46.5 -24t47.5 -21q40 -16 94 25q22 19 44 47q69 -28 99 -75q-166 -214 -241 -209q-12 1 -26.5 4t-32 9t-29.5 10.5t-34 13.5t-31 12q-95 39 -112 35q-33 -13 -81 -72q-80 33 -101 73zM63 317
q5 136 37 264q33 130 80 222q49 31 140 58q89 28 202 54q172 42 463 91q-3 11 -7.5 35t-8.5 41t-8 24q-84 52 -315 61q-53 2 -386 2q-4 105 16 219t54 146q690 76 1147 -55q104 -131 129 -654q7 -147 9 -290q1 -273 -13 -490q-218 -63 -663 -93t-650 7q-175 230 -226 358z
M595 1647q25 70 75.5 165.5t102.5 174.5q61 7 313 7q76 -140 198 -330q-27 -2 -84 -8t-95 -9.5t-45 -0.5q-11 21 -30.5 51.5t-41 61.5t-24.5 35q-1 1 -3.5 5t-4.5 7.5t-5.5 6t-7.5 2.5q-16 0 -31 -25q-66 -98 -89 -149q-119 -10 -228 6zM715 317q13 -6 28 -9.5t37 -4.5
t37 -1.5t47 1.5t47 3.5t57.5 5.5t59.5 5q-1 23 -3 151.5t-5 197.5q-67 -13 -157 -26q-76 -9 -150 -46q-27 -63 -24 -136t26 -141z" />
    <glyph glyph-name="uni1EAC" unicode="&#x1eac;" horiz-adv-x="2078" 
d="M798 -351q1 36 10 87q13 69 179 100q5 1 17 1t19 -1q72 -8 119 -35q18 -49 26 -96q7 -28 7 -59q0 -22 -3 -43q-14 -30 -103 -51q-49 -10 -80 -13q-32 -3 -58 -3q-15 0 -22 1q-84 2 -101 27q-8 17 -9 37q-2 18 -2 29q0 12 1 19zM6 -31q18 138 67 325q49 190 114 402
q50 164 136 422q74 218 136 389q-31 1 -58 6q-68 18 -79 23q7 29 24.5 110t33.5 140.5t34 93.5q167 38 384 50q140 9 249 10q36 1 106 1q49 -1 145 -3q283 -9 404 -44q17 -83 93 -438t105.5 -501.5t79 -425t82.5 -523.5q-193 -40 -488 -44h-50q-61 0 -88 1q-5 17 -17 53.5
t-15.5 48.5t-12 40t-12 42.5t-9.5 40t-11 50t-11 55.5q-72 11 -165 12q-41 1 -124 1h-61q-191 -2 -310 -30q-43 -89 -63 -146t-41 -155q-108 -26 -293.5 -26.5t-284.5 20.5zM838 780q34 -7 95 -12q41 -3 81 -3q29 0 42 1q154 6 189 16q-13 149 -48.5 331.5t-74.5 275.5
q-23 56 -51 56q-4 0 -5 -1q-32 -6 -54 -55q-22 -45 -99.5 -304.5t-74.5 -304.5zM754 2019q25 70 75.5 165.5t102.5 174.5q61 7 313 7q76 -140 198 -330q-27 -2 -84 -8t-95 -9.5t-45 -0.5q-11 21 -30.5 51.5t-41 61.5t-24.5 35q-1 1 -3.5 5t-4.5 7.5t-5.5 6t-7.5 2.5
q-16 0 -31 -25q-66 -98 -89 -149q-119 -10 -228 6z" />
    <glyph glyph-name="uni1EAD" unicode="&#x1ead;" 
d="M650 -342q1 36 10 87q13 69 179 100q5 1 17 1t19 -1q72 -8 119 -35q18 -49 26 -96q7 -28 7 -59q0 -22 -3 -43q-14 -30 -103 -51q-49 -10 -80 -13q-32 -3 -58 -3q-15 0 -22 1q-84 2 -101 27q-8 17 -9 37q-2 18 -2 29q0 12 1 19zM63 317q5 136 37 264q33 130 80 222
q49 31 140 58q89 28 202 54q172 42 463 91q-3 11 -7.5 35t-8.5 41t-8 24q-84 52 -315 61q-53 2 -386 2q-4 105 16 219t54 146q690 76 1147 -55q104 -131 129 -654q7 -147 9 -290q1 -273 -13 -490q-218 -63 -663 -93t-650 7q-175 230 -226 358zM595 1647q25 70 75.5 165.5
t102.5 174.5q61 7 313 7q76 -140 198 -330q-27 -2 -84 -8t-95 -9.5t-45 -0.5q-11 21 -30.5 51.5t-41 61.5t-24.5 35q-1 1 -3.5 5t-4.5 7.5t-5.5 6t-7.5 2.5q-16 0 -31 -25q-66 -98 -89 -149q-119 -10 -228 6zM715 317q13 -6 28 -9.5t37 -4.5t37 -1.5t47 1.5t47 3.5t57.5 5.5
t59.5 5q-1 23 -3 151.5t-5 197.5q-67 -13 -157 -26q-76 -9 -150 -46q-27 -63 -24 -136t26 -141z" />
    <glyph glyph-name="uni1EAE" unicode="&#x1eae;" horiz-adv-x="2078" 
d="M1031 2402q18 27 34.5 61t31.5 71t24.5 63.5t22.5 64t16 46.5q180 0 327 -75q-57 -70 -127 -152q-64 -77 -129 -120q-122 8 -200 41zM1385 2057l-2 -3q-28 -14 -93 -26.5t-128 -16.5q-38 -2 -72 -2q-134 0 -195 26q-25 34 -43.5 112t-18.5 141q0 32 8 56q16 3 64 5h59
q1 0 2.5 0.5t2.5 0.5q12 0 38 -2.5t35 -3.5q0 -5 1 -9t2.5 -10.5t6 -31.5t9.5 -65q53 -10 96 -10q33 0 70 10l7 8q8 8 10 11.5t9 15t14 28.5t17 42q40 0 99.5 -9.5t70.5 -21.5q-2 -76 -16.5 -132t-52.5 -113zM6 -31q18 138 67 325q49 190 114 402q50 164 136 422
q74 218 136 389q-31 1 -58 6q-68 18 -79 23q7 29 24.5 110t33.5 140.5t34 93.5q167 38 384 50q140 9 249 10q36 1 106 1q49 -1 145 -3q283 -9 404 -44q17 -83 93 -438t105.5 -501.5t79 -425t82.5 -523.5q-193 -40 -488 -44h-50q-61 0 -88 1q-5 17 -17 53.5t-15.5 48.5
t-12 40t-12 42.5t-9.5 40t-11 50t-11 55.5q-72 11 -165 12q-41 1 -124 1h-61q-191 -2 -310 -30q-43 -89 -63 -146t-41 -155q-108 -26 -293.5 -26.5t-284.5 20.5zM838 780q34 -7 95 -12q41 -3 81 -3q29 0 42 1q154 6 189 16q-13 149 -48.5 331.5t-74.5 275.5q-23 56 -51 56
q-4 0 -5 -1q-32 -6 -54 -55q-22 -45 -99.5 -304.5t-74.5 -304.5z" />
    <glyph glyph-name="uni1EAF" unicode="&#x1eaf;" 
d="M812 2038q18 27 34.5 61t31.5 71t24.5 63.5t22.5 64t16 46.5q180 0 327 -75q-57 -70 -127 -152q-65 -77 -129 -120q-122 8 -200 41zM1166 1693l-2 -3q-28 -14 -93 -26.5t-128 -16.5q-38 -2 -72 -2q-134 0 -195 26q-25 34 -43.5 112t-18.5 141q0 32 8 56q16 3 64 5h59
q1 0 2.5 0.5t2.5 0.5q12 0 38 -2.5t35 -3.5q0 -5 1 -9t2.5 -10.5t6 -31.5t9.5 -65q53 -10 96 -10q33 0 70 10l8 8q7 8 9 11.5t9 15t14 28.5t17 42q40 0 99.5 -9.5t70.5 -21.5q-2 -76 -16.5 -132t-52.5 -113zM63 317q5 136 37 264q33 130 80 222q49 31 140 58q89 28 202 54
q172 42 463 91q-3 11 -7.5 35t-8.5 41t-8 24q-84 52 -315 61q-80 3 -161 3h-41q-68 -1 -184 -1q-1 10 -1 33q0 34 3 72q6 89 24 162.5t44 97.5q160 16 286 22q96 6 192 6q36 0 102 -2q299 -8 567 -81q70 -89 102.5 -351t35.5 -592v-57q0 -111 -3 -215q-5 -145 -10 -219
q-142 -40 -404.5 -69.5t-512.5 -35.5q-31 -1 -89 -1q-72 0 -136 3q-100 4 -171 17q-175 230 -226 358zM688 476v-18q4 -73 27 -141q36 -16 95 -16q19 0 30 1q79 5 188 15q-1 23 -3 151.5t-5 197.5q-67 -13 -157 -26q-76 -9 -150 -46q-15 -25 -21 -62q-5 -32 -4 -56z" />
    <glyph glyph-name="uni1EB0" unicode="&#x1eb0;" horiz-adv-x="2078" 
d="M850 2630q147 75 325 75q65 -208 130 -305q-99 -36 -200 -41q-65 43 -129 120q-79 94 -126 151zM1385 2057l-2 -3q-28 -14 -93 -26.5t-128 -16.5q-38 -2 -72 -2q-134 0 -195 26q-25 34 -43.5 112t-18.5 141q0 32 8 56q16 3 64 5h59q1 0 2.5 0.5t2.5 0.5q12 0 38 -2.5
t35 -3.5q0 -5 1 -9t2.5 -10.5t6 -31.5t9.5 -65q53 -10 96 -10q33 0 70 10l7 8q8 8 10 11.5t9 15t14 28.5t17 42q40 0 99.5 -9.5t70.5 -21.5q-2 -76 -16.5 -132t-52.5 -113zM6 -31q18 138 67 325q49 190 114 402q50 164 136 422q74 218 136 389q-31 1 -58 6q-68 18 -79 23
q7 29 24.5 110t33.5 140.5t34 93.5q167 38 384 50q140 9 249 10q36 1 106 1q49 -1 145 -3q283 -9 404 -44q17 -83 93 -438t105.5 -501.5t79 -425t82.5 -523.5q-193 -40 -488 -44h-50q-61 0 -88 1q-5 17 -17 53.5t-15.5 48.5t-12 40t-12 42.5t-9.5 40t-11 50t-11 55.5
q-72 11 -165 12q-41 1 -124 1h-61q-191 -2 -310 -30q-43 -89 -63 -146t-41 -155q-108 -26 -293.5 -26.5t-284.5 20.5zM838 780q34 -7 95 -12q41 -3 81 -3q29 0 42 1q154 6 189 16q-13 149 -48.5 331.5t-74.5 275.5q-23 56 -51 56q-4 0 -5 -1q-32 -6 -54 -55
q-22 -45 -99.5 -304.5t-74.5 -304.5z" />
    <glyph glyph-name="uni1EB1" unicode="&#x1eb1;" 
d="M630 2266q147 75 325 75q65 -208 130 -305q-99 -36 -200 -41q-65 43 -129 120q-79 94 -126 151zM1166 1693l-2 -3q-28 -14 -93 -26.5t-128 -16.5q-38 -2 -72 -2q-134 0 -195 26q-25 34 -43.5 112t-18.5 141q0 32 8 56q16 3 64 5h59q1 0 2.5 0.5t2.5 0.5q12 0 38 -2.5
t35 -3.5q0 -5 1 -9t2.5 -10.5t6 -31.5t9.5 -65q53 -10 96 -10q33 0 70 10l8 8q7 8 9 11.5t9 15t14 28.5t17 42q40 0 99.5 -9.5t70.5 -21.5q-2 -76 -16.5 -132t-52.5 -113zM63 317q5 136 37 264q33 130 80 222q49 31 140 58q89 28 202 54q172 42 463 91q-3 11 -7.5 35
t-8.5 41t-8 24q-84 52 -315 61q-80 3 -161 3h-41q-68 -1 -184 -1q-1 10 -1 33q0 34 3 72q6 89 24 162.5t44 97.5q160 16 286 22q96 6 192 6q36 0 102 -2q299 -8 567 -81q70 -89 102.5 -351t35.5 -592v-57q0 -111 -3 -215q-5 -145 -10 -219q-142 -40 -404.5 -69.5
t-512.5 -35.5q-31 -1 -89 -1q-72 0 -136 3q-100 4 -171 17q-175 230 -226 358zM688 476v-18q4 -73 27 -141q36 -16 95 -16q19 0 30 1q79 5 188 15q-1 23 -3 151.5t-5 197.5q-67 -13 -157 -26q-76 -9 -150 -46q-15 -25 -21 -62q-5 -32 -4 -56z" />
    <glyph glyph-name="uni1EB2" unicode="&#x1eb2;" horiz-adv-x="2078" 
d="M960 2578q21 100 39 151q23 11 52 17q59 13 153 11q56 -1 108.5 -10t72.5 -19q12 -49 16 -98q3 -28 3 -70q2 -41 -3 -61q-20 -18 -66.5 -39.5t-56.5 -27.5q-10 -22 -8 -33q3 -7 -3 -36q-20 -6 -96 -11q-57 -4 -90 -4q-6 26 -6 50q0 2 1 11t2 21t1 19q6 5 21 20
q44 44 76 60q6 33 -2 61q-9 7 -47 8t-73 -4q-65 -6 -94 -16zM1385 2057l-2 -3q-28 -14 -93 -26.5t-128 -16.5q-38 -2 -72 -2q-134 0 -195 26q-25 34 -43.5 112t-18.5 141q0 32 8 56q16 3 64 5h59q1 0 2.5 0.5t2.5 0.5q12 0 38 -2.5t35 -3.5q0 -5 1 -9t2.5 -10.5t6 -31.5
t9.5 -65q53 -10 96 -10q33 0 70 10l7 8q8 8 10 11.5t9 15t14 28.5t17 42q40 0 99.5 -9.5t70.5 -21.5q-2 -76 -16.5 -132t-52.5 -113zM6 -31q18 138 67 325q49 190 114 402q50 164 136 422q74 218 136 389q-31 1 -58 6q-68 18 -79 23q7 29 24.5 110t33.5 140.5t34 93.5
q167 38 384 50q140 9 249 10q36 1 106 1q49 -1 145 -3q283 -9 404 -44q17 -83 93 -438t105.5 -501.5t79 -425t82.5 -523.5q-193 -40 -488 -44h-50q-61 0 -88 1q-5 17 -17 53.5t-15.5 48.5t-12 40t-12 42.5t-9.5 40t-11 50t-11 55.5q-72 11 -165 12q-41 1 -124 1h-61
q-191 -2 -310 -30q-43 -89 -63 -146t-41 -155q-108 -26 -293.5 -26.5t-284.5 20.5zM838 780q34 -7 95 -12q41 -3 81 -3q29 0 42 1q154 6 189 16q-13 149 -48.5 331.5t-74.5 275.5q-23 56 -51 56q-4 0 -5 -1q-32 -6 -54 -55q-22 -45 -99.5 -304.5t-74.5 -304.5z" />
    <glyph glyph-name="uni1EB3" unicode="&#x1eb3;" 
d="M740 2214q21 100 39 151q23 11 52 17q59 13 153 11q56 -1 108.5 -10t72.5 -19q12 -49 16 -98q3 -28 3 -70q2 -41 -3 -61q-20 -18 -66.5 -39.5t-56.5 -27.5q-10 -22 -8 -33q3 -7 -3 -36q-20 -6 -96 -11q-57 -4 -90 -4q-6 25 -6 50q0 2 1 11t2 21t1 19q6 5 21 20
q44 44 76 60q6 33 -2 61q-9 7 -46.5 8t-73.5 -4q-65 -6 -94 -16zM1166 1693l-2 -3q-28 -14 -93 -26.5t-128 -16.5q-38 -2 -72 -2q-134 0 -195 26q-25 34 -43.5 112t-18.5 141q0 32 8 56q16 3 64 5h59q1 0 2.5 0.5t2.5 0.5q12 0 38 -2.5t35 -3.5q0 -5 1 -9t2.5 -10.5t6 -31.5
t9.5 -65q53 -10 96 -10q33 0 70 10l8 8q7 8 9 11.5t9 15t14 28.5t17 42q40 0 99.5 -9.5t70.5 -21.5q-2 -76 -16.5 -132t-52.5 -113zM63 317q5 136 37 264q33 130 80 222q49 31 140 58q89 28 202 54q172 42 463 91q-3 11 -7.5 35t-8.5 41t-8 24q-84 52 -315 61q-80 3 -161 3
h-41q-68 -1 -184 -1q-1 10 -1 33q0 34 3 72q6 89 24 162.5t44 97.5q160 16 286 22q96 6 192 6q36 0 102 -2q299 -8 567 -81q70 -89 102.5 -351t35.5 -592v-57q0 -111 -3 -215q-5 -145 -10 -219q-142 -40 -404.5 -69.5t-512.5 -35.5q-31 -1 -89 -1q-72 0 -136 3
q-100 4 -171 17q-175 230 -226 358zM688 476v-18q4 -73 27 -141q36 -16 95 -16q19 0 30 1q79 5 188 15q-1 23 -3 151.5t-5 197.5q-67 -13 -157 -26q-76 -9 -150 -46q-15 -25 -21 -62q-5 -32 -4 -56z" />
    <glyph glyph-name="uni1EB4" unicode="&#x1eb4;" horiz-adv-x="2078" 
d="M834 2453q111 182 190 209q18 8 38.5 7.5t40 -6t44 -16.5t44.5 -22t46.5 -24t47.5 -21q40 -16 94 25q22 19 44 47q69 -28 99 -75q-166 -214 -241 -209q-12 1 -26.5 4t-32 9t-29.5 10.5t-34 13.5t-31 12q-95 39 -112 35q-33 -13 -81 -72q-80 33 -101 73zM1385 2057l-2 -3
q-28 -14 -93 -26.5t-128 -16.5q-38 -2 -72 -2q-134 0 -195 26q-25 34 -43.5 112t-18.5 141q0 32 8 56q16 3 64 5h59q1 0 2.5 0.5t2.5 0.5q12 0 38 -2.5t35 -3.5q0 -5 1 -9t2.5 -10.5t6 -31.5t9.5 -65q53 -10 96 -10q33 0 70 10l7 8q8 8 10 11.5t9 15t14 28.5t17 42
q40 0 99.5 -9.5t70.5 -21.5q-2 -76 -16.5 -132t-52.5 -113zM6 -31q18 138 67 325q49 190 114 402q50 164 136 422q74 218 136 389q-31 1 -58 6q-68 18 -79 23q7 29 24.5 110t33.5 140.5t34 93.5q167 38 384 50q140 9 249 10q36 1 106 1q49 -1 145 -3q283 -9 404 -44
q17 -83 93 -438t105.5 -501.5t79 -425t82.5 -523.5q-193 -40 -488 -44h-50q-61 0 -88 1q-5 17 -17 53.5t-15.5 48.5t-12 40t-12 42.5t-9.5 40t-11 50t-11 55.5q-72 11 -165 12q-41 1 -124 1h-61q-191 -2 -310 -30q-43 -89 -63 -146t-41 -155q-108 -26 -293.5 -26.5
t-284.5 20.5zM838 780q34 -7 95 -12q41 -3 81 -3q29 0 42 1q154 6 189 16q-13 149 -48.5 331.5t-74.5 275.5q-23 56 -51 56q-4 0 -5 -1q-32 -6 -54 -55q-22 -45 -99.5 -304.5t-74.5 -304.5z" />
    <glyph glyph-name="uni1EB5" unicode="&#x1eb5;" 
d="M614 2088q111 182 190 209q18 8 38.5 7.5t40 -6t44 -16.5t44.5 -22t46.5 -24t47.5 -21q40 -16 94 25q22 19 44 47q69 -28 99 -75q-166 -214 -241 -209q-12 1 -26.5 4t-32 9t-29.5 10.5t-34 13.5t-31 12q-95 39 -112 35q-33 -13 -81 -72q-80 33 -101 73zM1166 1693l-2 -3
q-28 -14 -93 -26.5t-128 -16.5q-38 -2 -72 -2q-134 0 -195 26q-25 34 -43.5 112t-18.5 141q0 32 8 56q16 3 64 5h59q1 0 2.5 0.5t2.5 0.5q12 0 38 -2.5t35 -3.5q0 -5 1 -9t2.5 -10.5t6 -31.5t9.5 -65q53 -10 96 -10q33 0 70 10l8 8q7 8 9 11.5t9 15t14 28.5t17 42
q40 0 99.5 -9.5t70.5 -21.5q-2 -76 -16.5 -132t-52.5 -113zM63 317q5 136 37 264q33 130 80 222q49 31 140 58q89 28 202 54q172 42 463 91q-3 11 -7.5 35t-8.5 41t-8 24q-84 52 -315 61q-80 3 -161 3h-41q-68 -1 -184 -1q-1 10 -1 33q0 34 3 72q6 89 24 162.5t44 97.5
q160 16 286 22q96 6 192 6q36 0 102 -2q299 -8 567 -81q70 -89 102.5 -351t35.5 -592v-57q0 -111 -3 -215q-5 -145 -10 -219q-142 -40 -404.5 -69.5t-512.5 -35.5q-31 -1 -89 -1q-72 0 -136 3q-100 4 -171 17q-175 230 -226 358zM688 476v-18q4 -73 27 -141q36 -16 95 -16
q19 0 30 1q79 5 188 15q-1 23 -3 151.5t-5 197.5q-67 -13 -157 -26q-76 -9 -150 -46q-15 -25 -21 -62q-5 -32 -4 -56z" />
    <glyph glyph-name="uni1EB6" unicode="&#x1eb6;" horiz-adv-x="2078" 
d="M798 -351q-1 -7 -1 -19q0 -11 2 -29q1 -20 9 -37q17 -25 101 -27q7 -1 22 -1q27 0 58 3t80 13q89 21 103 51q3 21 3 43q0 31 -7 59q-8 47 -26 96q-47 27 -119 35q-7 1 -19 1t-17 -1q-166 -31 -179 -100q-9 -51 -10 -87zM1385 2057l-2 -3q-28 -14 -93 -26.5t-128 -16.5
q-38 -2 -72 -2q-134 0 -195 26q-25 34 -43.5 112t-18.5 141q0 32 8 56q16 3 64 5h59q1 0 2.5 0.5t2.5 0.5q12 0 38 -2.5t35 -3.5q0 -5 1 -9t2.5 -10.5t6 -31.5t9.5 -65q53 -10 96 -10q33 0 70 10l7 8q8 8 10 11.5t9 15t14 28.5t17 42q40 0 99.5 -9.5t70.5 -21.5
q-2 -76 -16.5 -132t-52.5 -113zM6 -31q99 -21 284.5 -20.5t293.5 26.5q21 98 41 155t63 146q119 28 310 30h61q83 0 124 -1q93 -1 165 -12q6 -31 11 -55.5t11 -50t9.5 -40t12 -42.5t12 -40t15.5 -48.5t17 -53.5q27 -1 88 -1h50q295 4 488 44q-33 245 -82.5 523.5t-79 425
t-105.5 501.5t-93 438q-121 35 -404 44q-96 2 -145 3q-70 0 -106 -1q-109 -1 -249 -10q-217 -12 -384 -50q-18 -34 -34 -93.5t-33.5 -140.5t-24.5 -110q11 -5 79 -23q27 -5 58 -6q-62 -171 -136 -389q-86 -258 -136 -422q-65 -212 -114 -402q-49 -187 -67 -325zM838 780
q-3 45 74.5 304.5t99.5 304.5q22 49 54 55q1 1 5 1q28 0 51 -56q39 -93 74.5 -275.5t48.5 -331.5q-35 -10 -189 -16q-13 -1 -42 -1q-40 0 -81 3q-61 5 -95 12z" />
    <glyph glyph-name="uni1EB7" unicode="&#x1eb7;" 
d="M650 -342q-1 -7 -1 -19q0 -11 2 -29q1 -20 9 -37q17 -25 101 -27q7 -1 22 -1q27 0 58 3t80 13q89 21 103 51q3 21 3 43q0 31 -7 59q-8 47 -26 96q-47 27 -119 35q-7 1 -19 1t-17 -1q-166 -31 -179 -100q-9 -51 -10 -87zM1166 1693l-2 -3q-28 -14 -93 -26.5t-128 -16.5
q-38 -2 -72 -2q-134 0 -195 26q-25 34 -43.5 112t-18.5 141q0 32 8 56q16 3 64 5h59q1 0 2.5 0.5t2.5 0.5q12 0 38 -2.5t35 -3.5q0 -5 1 -9t2.5 -10.5t6 -31.5t9.5 -65q53 -10 96 -10q33 0 70 10l8 8q7 8 9 11.5t9 15t14 28.5t17 42q40 0 99.5 -9.5t70.5 -21.5
q-2 -76 -16.5 -132t-52.5 -113zM63 317q51 -128 226 -358q71 -13 171 -17q64 -3 136 -3q58 0 89 1q250 6 512.5 35.5t404.5 69.5q5 74 10 219q3 104 3 215v57q-3 330 -35.5 592t-102.5 351q-268 73 -567 81q-66 2 -102 2q-96 0 -192 -6q-126 -6 -286 -22q-26 -24 -44 -97.5
t-24 -162.5q-3 -38 -3 -72q0 -23 1 -33q116 0 184 1h41q81 0 161 -3q231 -9 315 -61q4 -7 8 -24t8.5 -41t7.5 -35q-291 -49 -463 -91q-113 -26 -202 -54q-91 -27 -140 -58q-47 -92 -80 -222q-32 -128 -37 -264zM688 458v18q-1 24 4 56q6 37 21 62q74 37 150 46q90 13 157 26
q3 -69 5 -197.5t3 -151.5q-109 -10 -188 -15q-11 -1 -30 -1q-59 0 -95 16q-23 68 -27 141z" />
    <glyph glyph-name="uni1EB8" unicode="&#x1eb8;" horiz-adv-x="1736" 
d="M728 -351q1 36 10 87q13 69 179 100q5 1 17 1t19 -1q72 -8 119 -35q18 -49 26 -96q7 -28 7 -59q0 -22 -3 -43q-14 -30 -103 -51q-49 -10 -80 -13t-58 -3q-15 0 -22 1q-84 2 -101 27q-8 17 -9 37q-2 18 -2 29q0 12 1 19zM72 1522q8 209 49 376q191 42 486 57q109 6 267 8
h90q118 0 176 -1q178 -3 466 -14q19 -52 21 -200v-38q0 -51 -1 -76q-1 -22 -2.5 -56.5t-1.5 -37.5q-115 -5 -207 -5q-68 0 -103 1q-21 1 -62 1q-129 0 -249 -13q-17 -26 -27 -74q-9 -41 -14 -106q0 -7 -1 -22t-1 -23q0 -39 4 -68q6 -56 19 -92q5 -2 38 -2t100.5 1t113.5 1
q67 -1 125.5 -0.5t113 -1t78.5 -7.5q7 -72 12 -160q0 -8 0.5 -24t1.5 -24q0 -54 -8 -107q-70 -8 -272.5 -10t-306.5 -25q-13 -30 -19 -81q-3 -25 -5 -76q0 -19 1 -29q5 -114 19 -193q47 -14 128 -17q83 -4 176 0q125 4 183 5q29 0 43 1q57 0 105 -5q15 -101 16 -199v-17
q0 -99 -22 -183q-393 -37 -655 -38h-37q-157 0 -300 7q-159 7 -360 31q-14 180 -20 362q-5 191 -6 388v99q0 99 2 299q4 255 7 386q-24 0 -81.5 1t-79.5 1z" />
    <glyph glyph-name="uni1EB9" unicode="&#x1eb9;" horiz-adv-x="1771" 
d="M682 -312q1 36 10 87q13 69 179 100q5 1 17 1t19 -1q72 -8 119 -35q18 -49 26 -96q7 -28 7 -59q0 -22 -3 -43q-14 -30 -103 -51q-49 -10 -80 -13q-32 -3 -58 -3q-15 0 -22 1q-84 2 -101 27q-8 17 -9 37q-2 18 -2 29q0 12 1 19zM78 477q-3 49 -3 103q0 62 5 144
q12 198 55 376t105 270q55 30 158 55q196 50 508 83q132 16 264 22q65 4 138 4q30 0 80 -2q95 -5 130 -19q91 -157 138 -412q21 -110 32 -242q8 -100 7 -176q0 -44 -1 -65q-57 -9 -183 -22q-133 -14 -255 -23q-138 -11 -285 -18q-144 -7 -269 -12q8 -80 35 -121
q54 -34 227 -56.5t341 -35.5t198 -25q1 -9 1 -30q0 -31 -3 -69q-7 -89 -24.5 -162.5t-42.5 -90.5q-313 0 -641 41q-348 42 -627 135q-75 91 -88 348zM711 854q15 -1 44 -1q83 -1 168 13q109 18 171 35q2 32 2 49q0 40 -4 72q-6 64 -31 113q-20 -2 -64.5 -4t-69.5 -4.5
t-68 -13t-87 -28.5q-15 -48 -35 -105q-15 -42 -26 -126z" />
    <glyph glyph-name="uni1EBA" unicode="&#x1eba;" horiz-adv-x="1736" 
d="M735 2271q21 100 39 151q23 11 52 17q59 13 153 11q56 -1 108.5 -10t72.5 -19q12 -49 16 -98q3 -28 3 -70q2 -41 -3 -61q-20 -18 -66.5 -39.5t-56.5 -27.5q-10 -22 -8 -33q3 -8 -3 -36q-20 -6 -96 -11q-57 -4 -90 -4q-6 25 -6 50q0 2 1 11t2 21t1 19q6 5 21 20
q44 44 76 60q6 33 -2 61q-9 7 -46.5 8t-73.5 -4q-65 -6 -94 -16zM72 1522q8 209 49 376q191 42 486 57q109 6 267 8h90q118 0 176 -1q178 -3 466 -14q19 -52 21 -200v-38q0 -51 -1 -76q-1 -22 -2.5 -56.5t-1.5 -37.5q-115 -5 -207 -5q-68 0 -103 1q-21 1 -62 1
q-129 0 -249 -13q-17 -26 -27 -74q-9 -41 -14 -106q0 -7 -1 -22t-1 -23q0 -39 4 -68q6 -56 19 -92q5 -2 38 -2t100.5 1t113.5 1q67 -1 125.5 -0.5t113 -1t78.5 -7.5q7 -72 12 -160q0 -8 0.5 -24t1.5 -24q0 -54 -8 -107q-70 -8 -272.5 -10t-306.5 -25q-13 -30 -19 -81
q-3 -25 -5 -76q0 -19 1 -29q5 -114 19 -193q47 -14 128 -17q83 -4 176 0q125 4 183 5q29 0 43 1q57 0 105 -5q15 -101 16 -199v-17q0 -99 -22 -183q-393 -37 -655 -38h-37q-157 0 -300 7q-159 7 -360 31q-14 180 -20 362q-5 191 -6 388v99q0 99 2 299q4 255 7 386
q-24 0 -81.5 1t-79.5 1z" />
    <glyph glyph-name="uni1EBB" unicode="&#x1ebb;" horiz-adv-x="1771" 
d="M738 1839q21 100 39 151q23 11 52 17q59 13 153 11q56 -1 108.5 -10t72.5 -19q12 -49 16 -98q3 -29 3 -70q2 -41 -3 -61q-20 -18 -66.5 -39.5t-56.5 -27.5q-10 -22 -8 -33q3 -8 -3 -36q-20 -6 -96 -11q-57 -4 -90 -4q-6 25 -6 50q0 2 1 11t2 21t1 19q6 5 21 20
q44 44 76 60q6 33 -2 61q-9 7 -46.5 8t-73.5 -4q-65 -6 -94 -16zM78 477q-3 49 -3 103q0 62 5 144q12 198 55 376t105 270q55 30 158 55q196 50 508 83q132 16 264 22q65 4 138 4q30 0 80 -2q95 -5 130 -19q91 -157 138 -412q21 -110 32 -242q8 -100 7 -176q0 -44 -1 -65
q-57 -9 -183 -22q-133 -14 -255 -23q-138 -11 -285 -18q-144 -7 -269 -12q8 -80 35 -121q54 -34 227 -56.5t341 -35.5t198 -25q1 -9 1 -30q0 -31 -3 -69q-7 -89 -24.5 -162.5t-42.5 -90.5q-313 0 -641 41q-348 42 -627 135q-75 91 -88 348zM711 854q15 -1 44 -1
q83 -1 168 13q109 18 171 35q2 32 2 49q0 40 -4 72q-6 64 -31 113q-20 -2 -64.5 -4t-69.5 -4.5t-68 -13t-87 -28.5q-15 -48 -35 -105q-15 -42 -26 -126z" />
    <glyph glyph-name="uni1EBC" unicode="&#x1ebc;" horiz-adv-x="1736" 
d="M604 2132q111 182 190 209q18 8 38.5 7.5t40 -6t44 -16.5t44.5 -22t46.5 -24t47.5 -21q40 -16 94 25q22 19 44 47q69 -28 99 -75q-166 -214 -241 -209q-12 1 -26.5 4t-32 9t-29.5 10.5t-34 13.5t-31 12q-95 39 -112 35q-33 -13 -81 -72q-80 33 -101 73zM72 1522
q8 209 49 376q191 42 486 57q109 6 267 8h90q118 0 176 -1q178 -3 466 -14q19 -52 21 -200v-38q0 -51 -1 -76q-1 -22 -2.5 -56.5t-1.5 -37.5q-115 -5 -207 -5q-68 0 -103 1q-21 1 -62 1q-129 0 -249 -13q-17 -26 -27 -74q-9 -41 -14 -106q0 -7 -1 -22t-1 -23q0 -39 4 -68
q6 -56 19 -92q5 -2 38 -2t100.5 1t113.5 1q67 -1 125.5 -0.5t113 -1t78.5 -7.5q7 -72 12 -160q0 -8 0.5 -24t1.5 -24q0 -54 -8 -107q-70 -8 -272.5 -10t-306.5 -25q-13 -30 -19 -81q-3 -25 -5 -76q0 -19 1 -29q5 -114 19 -193q47 -14 128 -17q83 -4 176 0q125 4 183 5
q29 0 43 1q57 0 105 -5q15 -101 16 -199v-17q0 -99 -22 -183q-393 -37 -655 -38h-37q-157 0 -300 7q-159 7 -360 31q-14 180 -20 362q-5 191 -6 388v99q0 99 2 299q4 255 7 386q-24 0 -81.5 1t-79.5 1z" />
    <glyph glyph-name="uni1EBD" unicode="&#x1ebd;" horiz-adv-x="1771" 
d="M584 1706q111 182 190 209q18 8 38.5 7.5t40 -6t44 -16.5t44.5 -22t46.5 -24t47.5 -21q40 -16 94 25q22 19 44 47q69 -28 99 -75q-166 -214 -241 -209q-12 1 -26.5 4t-32 9t-29.5 10.5t-34 13.5t-31 12q-95 39 -112 35q-33 -13 -81 -72q-80 33 -101 73zM78 477
q-3 49 -3 103q0 62 5 144q12 198 55 376t105 270q55 30 158 55q196 50 508 83q132 16 264 22q65 4 138 4q30 0 80 -2q95 -5 130 -19q91 -157 138 -412q21 -110 32 -242q8 -100 7 -176q0 -44 -1 -65q-57 -9 -183 -22q-133 -14 -255 -23q-138 -11 -285 -18q-144 -7 -269 -12
q8 -80 35 -121q54 -34 227 -56.5t341 -35.5t198 -25q1 -9 1 -30q0 -31 -3 -69q-7 -89 -24.5 -162.5t-42.5 -90.5q-313 0 -641 41q-348 42 -627 135q-75 91 -88 348zM711 854q15 -1 44 -1q83 -1 168 13q109 18 171 35q2 32 2 49q0 40 -4 72q-6 64 -31 113q-20 -2 -64.5 -4
t-69.5 -4.5t-68 -13t-87 -28.5q-15 -48 -35 -105q-15 -42 -26 -126z" />
    <glyph glyph-name="uni1EBE" unicode="&#x1ebe;" horiz-adv-x="1736" 
d="M1178 2301q18 27 34.5 61t31.5 71t24.5 63.5t22.5 64t16 46.5q180 0 327 -75q-57 -70 -127 -152q-65 -76 -129 -120q-122 8 -200 41zM72 1522q8 209 49 376q191 42 486 57q109 6 267 8h90q118 0 176 -1q178 -3 466 -14q19 -52 21 -200v-38q0 -51 -1 -76
q-1 -22 -2.5 -56.5t-1.5 -37.5q-115 -5 -207 -5q-68 0 -103 1q-21 1 -62 1q-129 0 -249 -13q-17 -26 -27 -74q-9 -41 -14 -106q0 -7 -1 -22t-1 -23q0 -39 4 -68q6 -56 19 -92q5 -2 38 -2t100.5 1t113.5 1q67 -1 125.5 -0.5t113 -1t78.5 -7.5q7 -72 12 -160q0 -8 0.5 -24
t1.5 -24q0 -54 -8 -107q-70 -8 -272.5 -10t-306.5 -25q-13 -30 -19 -81q-3 -25 -5 -76q0 -19 1 -29q5 -114 19 -193q47 -14 128 -17q83 -4 176 0q125 4 183 5q29 0 43 1q57 0 105 -5q15 -101 16 -199v-17q0 -99 -22 -183q-393 -37 -655 -38h-37q-157 0 -300 7
q-159 7 -360 31q-14 180 -20 362q-5 191 -6 388v99q0 99 2 299q4 255 7 386q-24 0 -81.5 1t-79.5 1zM593 2038q25 70 75.5 165.5t102.5 174.5q61 7 313 7q76 -140 198 -330q-27 -2 -84 -8t-95 -9.5t-45 -0.5q-11 21 -30.5 51.5t-41 61.5t-24.5 35q-1 1 -3.5 5t-4.5 7.5
t-5.5 6t-7.5 2.5q-16 0 -31 -25q-66 -98 -89 -149q-119 -10 -228 6z" />
    <glyph glyph-name="uni1EBF" unicode="&#x1ebf;" horiz-adv-x="1771" 
d="M1154 1876q18 27 34.5 61t31.5 71t24.5 63.5t22.5 64t16 46.5q180 0 327 -75q-57 -70 -127 -152q-65 -77 -129 -120q-122 8 -200 41zM240 1370q55 30 158 55q195 50 507 83q135 16 265 22q129 6 218 2q97 -5 130 -19q90 -158 136 -404t40 -491q-57 -9 -183 -22
q-133 -14 -255 -23q-138 -11 -285 -18q-144 -7 -269 -12q8 -80 35 -121q54 -34 227 -56.5t341 -35.5t198 -25q4 -96 -16 -212t-53 -140q-313 0 -641 41q-348 42 -627 135q-56 68 -77.5 230.5t-8.5 364.5q12 198 55 376t105 270zM711 854q172 -6 383 47q10 152 -33 234
q-20 -2 -64.5 -4t-69.5 -4.5t-68 -13t-87 -28.5q-15 -48 -35 -105q-15 -42 -26 -126zM568 1611q25 70 75.5 165.5t102.5 174.5q61 7 313 7q76 -140 198 -330q-27 -2 -84 -8t-95 -9.5t-45 -0.5q-11 21 -30.5 51.5t-41 61.5t-24.5 35q-1 1 -3.5 5t-4.5 7.5t-5.5 6t-7.5 2.5
q-16 0 -31 -25q-66 -98 -89 -149q-119 -10 -228 6z" />
    <glyph glyph-name="uni1EC0" unicode="&#x1ec0;" horiz-adv-x="1736" 
d="M1032 2530q147 75 325 75q65 -208 130 -305q-99 -36 -200 -41q-65 43 -129 120q-79 94 -126 151zM72 1522q8 209 49 376q191 42 486 57q109 6 267 8h90q118 0 176 -1q178 -3 466 -14q19 -52 21 -200v-38q0 -51 -1 -76q-1 -22 -2.5 -56.5t-1.5 -37.5q-115 -5 -207 -5
q-68 0 -103 1q-21 1 -62 1q-129 0 -249 -13q-17 -26 -27 -74q-9 -41 -14 -106q0 -7 -1 -22t-1 -23q0 -39 4 -68q6 -56 19 -92q5 -2 38 -2t100.5 1t113.5 1q67 -1 125.5 -0.5t113 -1t78.5 -7.5q7 -72 12 -160q0 -8 0.5 -24t1.5 -24q0 -54 -8 -107q-70 -8 -272.5 -10
t-306.5 -25q-13 -30 -19 -81q-3 -25 -5 -76q0 -19 1 -29q5 -114 19 -193q47 -14 128 -17q83 -4 176 0q125 4 183 5q29 0 43 1q57 0 105 -5q15 -101 16 -199v-17q0 -99 -22 -183q-393 -37 -655 -38h-37q-157 0 -300 7q-159 7 -360 31q-14 180 -20 362q-5 191 -6 388v99
q0 99 2 299q4 255 7 386q-24 0 -81.5 1t-79.5 1zM593 2038q25 70 75.5 165.5t102.5 174.5q61 7 313 7q76 -140 198 -330q-27 -2 -84 -8t-95 -9.5t-45 -0.5q-11 21 -30.5 51.5t-41 61.5t-24.5 35q-1 1 -3.5 5t-4.5 7.5t-5.5 6t-7.5 2.5q-16 0 -31 -25q-66 -98 -89 -149
q-119 -10 -228 6z" />
    <glyph glyph-name="uni1EC1" unicode="&#x1ec1;" horiz-adv-x="1771" 
d="M1009 2105q147 75 325 75q65 -208 130 -305q-99 -36 -200 -41q-64 44 -129 120q-79 94 -126 151zM240 1370q55 30 158 55q195 50 507 83q135 16 265 22q129 6 218 2q97 -5 130 -19q90 -158 136 -404t40 -491q-57 -9 -183 -22q-133 -14 -255 -23q-138 -11 -285 -18
q-144 -7 -269 -12q8 -80 35 -121q54 -34 227 -56.5t341 -35.5t198 -25q4 -96 -16 -212t-53 -140q-313 0 -641 41q-348 42 -627 135q-56 68 -77.5 230.5t-8.5 364.5q12 198 55 376t105 270zM711 854q172 -6 383 47q10 152 -33 234q-20 -2 -64.5 -4t-69.5 -4.5t-68 -13
t-87 -28.5q-15 -48 -35 -105q-15 -42 -26 -126zM568 1611q25 70 75.5 165.5t102.5 174.5q61 7 313 7q76 -140 198 -330q-27 -2 -84 -8t-95 -9.5t-45 -0.5q-11 21 -30.5 51.5t-41 61.5t-24.5 35q-1 1 -3.5 5t-4.5 7.5t-5.5 6t-7.5 2.5q-16 0 -31 -25q-66 -98 -89 -149
q-119 -10 -228 6z" />
    <glyph glyph-name="uni1EC2" unicode="&#x1ec2;" horiz-adv-x="1736" 
d="M1082 2482q21 100 39 151q23 11 52 17q59 13 153 11q56 -1 108.5 -10t72.5 -19q12 -49 16 -98q3 -28 3 -70q2 -41 -3 -61q-20 -18 -66.5 -39.5t-56.5 -27.5q-10 -22 -8 -33q3 -7 -3 -36q-20 -6 -96 -11q-57 -4 -90 -4q-6 26 -6 50q0 2 1 11t2 21t1 19q6 5 21 20
q44 44 76 60q6 33 -2 61q-9 7 -47 8t-73 -4q-65 -6 -94 -16zM72 1522q8 209 49 376q191 42 486 57q109 6 267 8h90q118 0 176 -1q178 -3 466 -14q19 -52 21 -200v-38q0 -51 -1 -76q-1 -22 -2.5 -56.5t-1.5 -37.5q-115 -5 -207 -5q-68 0 -103 1q-21 1 -62 1q-129 0 -249 -13
q-17 -26 -27 -74q-9 -41 -14 -106q0 -7 -1 -22t-1 -23q0 -39 4 -68q6 -56 19 -92q5 -2 38 -2t100.5 1t113.5 1q67 -1 125.5 -0.5t113 -1t78.5 -7.5q7 -72 12 -160q0 -8 0.5 -24t1.5 -24q0 -54 -8 -107q-70 -8 -272.5 -10t-306.5 -25q-13 -30 -19 -81q-3 -25 -5 -76
q0 -19 1 -29q5 -114 19 -193q47 -14 128 -17q83 -4 176 0q125 4 183 5q29 0 43 1q57 0 105 -5q15 -101 16 -199v-17q0 -99 -22 -183q-393 -37 -655 -38h-37q-157 0 -300 7q-159 7 -360 31q-14 180 -20 362q-5 191 -6 388v99q0 99 2 299q4 255 7 386q-24 0 -81.5 1t-79.5 1z
M593 2038q25 70 75.5 165.5t102.5 174.5q61 7 313 7q76 -140 198 -330q-27 -2 -84 -8t-95 -9.5t-45 -0.5q-11 21 -30.5 51.5t-41 61.5t-24.5 35q-1 1 -3.5 5t-4.5 7.5t-5.5 6t-7.5 2.5q-16 0 -31 -25q-66 -98 -89 -149q-119 -10 -228 6z" />
    <glyph glyph-name="uni1EC3" unicode="&#x1ec3;" horiz-adv-x="1771" 
d="M1059 2055q21 100 39 151q23 11 52 17q59 13 153 11q56 -1 108.5 -10t72.5 -19q12 -49 16 -98q3 -29 3 -70q2 -41 -3 -61q-20 -18 -66.5 -39.5t-56.5 -27.5q-10 -22 -8 -33q3 -8 -3 -36q-20 -6 -96 -11q-57 -4 -90 -4q-6 26 -6 50q0 2 1 11t2 21t1 19q6 5 21 20
q44 44 76 60q6 33 -2 61q-9 7 -47 8t-73 -4q-65 -6 -94 -16zM240 1370q55 30 158 55q195 50 507 83q135 16 265 22q129 6 218 2q97 -5 130 -19q90 -158 136 -404t40 -491q-57 -9 -183 -22q-133 -14 -255 -23q-138 -11 -285 -18q-144 -7 -269 -12q8 -80 35 -121
q54 -34 227 -56.5t341 -35.5t198 -25q4 -96 -16 -212t-53 -140q-313 0 -641 41q-348 42 -627 135q-56 68 -77.5 230.5t-8.5 364.5q12 198 55 376t105 270zM711 854q172 -6 383 47q10 152 -33 234q-20 -2 -64.5 -4t-69.5 -4.5t-68 -13t-87 -28.5q-15 -48 -35 -105
q-15 -42 -26 -126zM568 1611q25 70 75.5 165.5t102.5 174.5q61 7 313 7q76 -140 198 -330q-27 -2 -84 -8t-95 -9.5t-45 -0.5q-11 21 -30.5 51.5t-41 61.5t-24.5 35q-1 1 -3.5 5t-4.5 7.5t-5.5 6t-7.5 2.5q-16 0 -31 -25q-66 -98 -89 -149q-119 -10 -228 6z" />
    <glyph glyph-name="uni1EC4" unicode="&#x1ec4;" horiz-adv-x="1736" 
d="M609 2507q111 182 190 209q18 8 38.5 7.5t40 -6t44 -16.5t44.5 -22t46.5 -24t47.5 -21q40 -16 94 25q22 19 44 47q69 -28 99 -75q-166 -214 -241 -209q-12 1 -26.5 4t-32 9t-29.5 10.5t-34 13.5t-31 12q-95 39 -112 35q-33 -13 -81 -72q-80 33 -101 73zM72 1522
q8 209 49 376q191 42 486 57q109 6 267 8h90q118 0 176 -1q178 -3 466 -14q19 -52 21 -200v-38q0 -51 -1 -76q-1 -22 -2.5 -56.5t-1.5 -37.5q-115 -5 -207 -5q-68 0 -103 1q-21 1 -62 1q-129 0 -249 -13q-17 -26 -27 -74q-9 -41 -14 -106q0 -7 -1 -22t-1 -23q0 -39 4 -68
q6 -56 19 -92q5 -2 38 -2t100.5 1t113.5 1q67 -1 125.5 -0.5t113 -1t78.5 -7.5q7 -72 12 -160q0 -8 0.5 -24t1.5 -24q0 -54 -8 -107q-70 -8 -272.5 -10t-306.5 -25q-13 -30 -19 -81q-3 -25 -5 -76q0 -19 1 -29q5 -114 19 -193q47 -14 128 -17q83 -4 176 0q125 4 183 5
q29 0 43 1q57 0 105 -5q15 -101 16 -199v-17q0 -99 -22 -183q-393 -37 -655 -38h-37q-157 0 -300 7q-159 7 -360 31q-14 180 -20 362q-5 191 -6 388v99q0 99 2 299q4 255 7 386q-24 0 -81.5 1t-79.5 1zM593 2038q25 70 75.5 165.5t102.5 174.5q61 7 313 7q76 -140 198 -330
q-27 -2 -84 -8t-95 -9.5t-45 -0.5q-11 21 -30.5 51.5t-41 61.5t-24.5 35q-1 1 -3.5 5t-4.5 7.5t-5.5 6t-7.5 2.5q-16 0 -31 -25q-66 -98 -89 -149q-119 -10 -228 6z" />
    <glyph glyph-name="uni1EC5" unicode="&#x1ec5;" horiz-adv-x="1771" 
d="M587 2082q111 182 190 209q18 8 38.5 7.5t40 -6t44 -16.5t44.5 -22t46.5 -24t47.5 -21q40 -16 94 25q22 19 44 47q69 -28 99 -75q-166 -214 -241 -209q-12 1 -26.5 4t-32 9t-29.5 10.5t-34 13.5t-31 12q-95 39 -112 35q-33 -13 -81 -72q-80 33 -101 73zM240 1370
q55 30 158 55q195 50 507 83q135 16 265 22q129 6 218 2q97 -5 130 -19q90 -158 136 -404t40 -491q-57 -9 -183 -22q-133 -14 -255 -23q-138 -11 -285 -18q-144 -7 -269 -12q8 -80 35 -121q54 -34 227 -56.5t341 -35.5t198 -25q4 -96 -16 -212t-53 -140q-313 0 -641 41
q-348 42 -627 135q-56 68 -77.5 230.5t-8.5 364.5q12 198 55 376t105 270zM711 854q172 -6 383 47q10 152 -33 234q-20 -2 -64.5 -4t-69.5 -4.5t-68 -13t-87 -28.5q-15 -48 -35 -105q-15 -42 -26 -126zM568 1611q25 70 75.5 165.5t102.5 174.5q61 7 313 7q76 -140 198 -330
q-27 -2 -84 -8t-95 -9.5t-45 -0.5q-11 21 -30.5 51.5t-41 61.5t-24.5 35q-1 1 -3.5 5t-4.5 7.5t-5.5 6t-7.5 2.5q-16 0 -31 -25q-66 -98 -89 -149q-119 -10 -228 6z" />
    <glyph glyph-name="uni1EC6" unicode="&#x1ec6;" horiz-adv-x="1736" 
d="M728 -351q1 36 10 87q13 69 179 100q5 1 17 1t19 -1q72 -8 119 -35q18 -49 26 -96q7 -28 7 -59q0 -22 -3 -43q-14 -30 -103 -51q-49 -10 -80 -13t-58 -3q-15 0 -22 1q-84 2 -101 27q-8 17 -9 37q-2 18 -2 29q0 12 1 19zM72 1522q8 209 49 376q191 42 486 57q109 6 267 8
h90q118 0 176 -1q178 -3 466 -14q19 -52 21 -200v-38q0 -51 -1 -76q-1 -22 -2.5 -56.5t-1.5 -37.5q-115 -5 -207 -5q-68 0 -103 1q-21 1 -62 1q-129 0 -249 -13q-17 -26 -27 -74q-9 -41 -14 -106q0 -7 -1 -22t-1 -23q0 -39 4 -68q6 -56 19 -92q5 -2 38 -2t100.5 1t113.5 1
q67 -1 125.5 -0.5t113 -1t78.5 -7.5q7 -72 12 -160q0 -8 0.5 -24t1.5 -24q0 -54 -8 -107q-70 -8 -272.5 -10t-306.5 -25q-13 -30 -19 -81q-3 -25 -5 -76q0 -19 1 -29q5 -114 19 -193q47 -14 128 -17q83 -4 176 0q125 4 183 5q29 0 43 1q57 0 105 -5q15 -101 16 -199v-17
q0 -99 -22 -183q-393 -37 -655 -38h-37q-157 0 -300 7q-159 7 -360 31q-14 180 -20 362q-5 191 -6 388v99q0 99 2 299q4 255 7 386q-24 0 -81.5 1t-79.5 1zM593 2038q25 70 75.5 165.5t102.5 174.5q61 7 313 7q76 -140 198 -330q-27 -2 -84 -8t-95 -9.5t-45 -0.5
q-11 21 -30.5 51.5t-41 61.5t-24.5 35q-1 1 -3.5 5t-4.5 7.5t-5.5 6t-7.5 2.5q-16 0 -31 -25q-66 -98 -89 -149q-119 -10 -228 6z" />
    <glyph glyph-name="uni1EC7" unicode="&#x1ec7;" horiz-adv-x="1771" 
d="M682 -312q1 36 10 87q13 69 179 100q5 1 17 1t19 -1q72 -8 119 -35q18 -49 26 -96q7 -28 7 -59q0 -22 -3 -43q-14 -30 -103 -51q-49 -10 -80 -13q-32 -3 -58 -3q-15 0 -22 1q-84 2 -101 27q-8 17 -9 37q-2 18 -2 29q0 12 1 19zM240 1370q55 30 158 55q195 50 507 83
q135 16 265 22q129 6 218 2q97 -5 130 -19q90 -158 136 -404t40 -491q-57 -9 -183 -22q-133 -14 -255 -23q-138 -11 -285 -18q-144 -7 -269 -12q8 -80 35 -121q54 -34 227 -56.5t341 -35.5t198 -25q4 -96 -16 -212t-53 -140q-313 0 -641 41q-348 42 -627 135
q-56 68 -77.5 230.5t-8.5 364.5q12 198 55 376t105 270zM711 854q172 -6 383 47q10 152 -33 234q-20 -2 -64.5 -4t-69.5 -4.5t-68 -13t-87 -28.5q-15 -48 -35 -105q-15 -42 -26 -126zM568 1611q25 70 75.5 165.5t102.5 174.5q61 7 313 7q76 -140 198 -330q-27 -2 -84 -8
t-95 -9.5t-45 -0.5q-11 21 -30.5 51.5t-41 61.5t-24.5 35q-1 1 -3.5 5t-4.5 7.5t-5.5 6t-7.5 2.5q-16 0 -31 -25q-66 -98 -89 -149q-119 -10 -228 6z" />
    <glyph glyph-name="uni1EC8" unicode="&#x1ec8;" horiz-adv-x="897" 
d="M258 2151q21 100 39 151q23 11 52 17q59 13 153 11q56 -1 108.5 -10t72.5 -19q12 -49 16 -98q3 -29 3 -70q2 -41 -3 -61q-20 -18 -66.5 -39.5t-56.5 -27.5q-10 -22 -8 -33q3 -8 -3 -36q-20 -6 -96 -11q-57 -4 -90 -4q-6 25 -6 50q0 2 1 11t2 21t1 19q6 5 21 20
q44 44 76 60q6 33 -2 61q-9 7 -46.5 8t-73.5 -4q-65 -6 -94 -16zM161 922v157q0 206 1 307q1 209 8 416q37 9 78 15.5t89.5 10.5t82.5 6.5t92 3.5t81.5 1h87h75.5q0 -831 -49 -1790q-46 -27 -240 -39t-279 -4q-25 440 -27 916z" />
    <glyph glyph-name="uni1EC9" unicode="&#x1ec9;" horiz-adv-x="806" 
d="M144 688q-1 44 -1 130q0 266 11 525q75 15 181 22t167 8t178 1q0 -561 -43 -1335q-24 -13 -89 -20q-63 -7 -139 -12q-82 -5 -142 -5q-59 0 -97 2q-23 343 -26 684zM202 1692q21 100 39 151q23 11 52 17q59 13 153 11q56 -1 108.5 -10t72.5 -19q12 -49 16 -98q3 -28 3 -70
q2 -41 -3 -61q-20 -18 -66.5 -39.5t-56.5 -27.5q-10 -22 -8 -33q3 -7 -3 -36q-20 -6 -96 -11q-57 -4 -90 -4q-6 26 -6 50q0 2 1 11t2 21t1 19q6 5 21 20q44 44 76 60q6 33 -2 61q-9 7 -46.5 8t-73.5 -4q-65 -6 -94 -16z" />
    <glyph glyph-name="uni1ECA" unicode="&#x1eca;" horiz-adv-x="897" 
d="M256 -304q1 36 10 87q13 69 179 100q5 1 17 1t19 -1q72 -8 119 -35q18 -49 26 -96q7 -28 7 -59q0 -22 -3 -43q-14 -30 -103 -51q-49 -10 -80 -13q-32 -3 -58 -3q-15 0 -22 1q-84 2 -101 27q-8 17 -9 37q-2 18 -2 29q0 12 1 19zM161 922v157q0 206 1 307q1 209 8 416
q37 9 78 15.5t89.5 10.5t82.5 6.5t92 3.5t81.5 1h87h75.5q0 -831 -49 -1790q-46 -27 -240 -39t-279 -4q-25 440 -27 916z" />
    <glyph glyph-name="uni1ECB" unicode="&#x1ecb;" horiz-adv-x="806" 
d="M218 -308q1 36 10 87q13 69 179 100q5 1 17 1t19 -1q72 -8 119 -35q18 -49 26 -96q7 -28 7 -59q0 -22 -3 -43q-14 -30 -103 -51q-49 -10 -80 -13t-58 -3q-15 0 -22 1q-84 2 -101 27q-8 17 -9 37q-2 18 -2 29q0 12 1 19zM204 1618q1 47 12 101q2 13 8.5 24t17.5 20.5
t21.5 17t27.5 14.5t28 11.5t30.5 10t27.5 7.5t26.5 6t20.5 5q6 1 19 1q14 0 22 -1q90 -11 137 -41q21 -48 32 -111q7 -32 7 -69q0 -28 -4 -49q-16 -37 -119 -60q-49 -10 -92 -14q-32 -4 -67 -4q-17 0 -26 1q-101 5 -117 32q-10 18 -11 42q-2 22 -2 34q0 14 1 22zM144 688
q-1 44 -1 130q0 266 11 525q75 15 181 22t167 8t178 1q0 -561 -43 -1335q-24 -13 -89 -20q-63 -7 -139 -12q-82 -5 -142 -5q-59 0 -97 2q-23 343 -26 684z" />
    <glyph glyph-name="uni1ECC" unicode="&#x1ecc;" horiz-adv-x="2109" 
d="M822 -384q1 36 10 87q13 69 179 100q5 1 17 1t19 -1q72 -8 119 -35q18 -49 26 -96q7 -28 7 -59q0 -22 -3 -43q-14 -30 -103 -51q-49 -10 -80 -13t-58 -3q-15 0 -22 1q-84 2 -101 27q-8 17 -9 37q-2 18 -2 29q0 12 1 19zM109 1518q22 25 98 120.5t141 169t101 95.5
q6 1 136.5 13t176.5 15t172.5 12.5t200 10t177.5 0.5t186.5 -8.5t150.5 -22.5q149 -129 329 -455q5 -73 9 -170q8 -135 14 -430q7 -390 -10 -518q-29 -40 -124 -184.5t-155 -216.5q-224 -43 -651.5 -44.5t-704.5 34.5q-60 68 -142 213t-116 243q-2 164 -2 274q0 202 1 303
q2 168 3 295q2 145 9 251zM802 886v-201q2 -97 3 -173q2 -104 2 -115q47 -24 115 -32q30 -3 61 -3q41 0 73 4q148 18 224 91q0 13 4.5 198.5t5 260t-5 223t-18.5 268.5q-24 -1 -78.5 -2t-78.5 -1.5t-68 -4.5t-72 -10.5t-64.5 -18.5t-70.5 -29q-21 -44 -28 -255
q-2 -67 -4 -200z" />
    <glyph glyph-name="uni1ECD" unicode="&#x1ecd;" horiz-adv-x="1802" 
d="M685 -333q1 36 10 87q13 69 179 100q5 1 17 1t19 -1q72 -8 119 -35q18 -49 26 -96q7 -28 7 -59q0 -22 -3 -43q-14 -30 -103 -51q-49 -10 -80 -13t-58 -3q-15 0 -22 1q-84 2 -101 27q-8 17 -9 37q-2 18 -2 29q0 12 1 19zM92 1196q19 19 84.5 90.5t120.5 126t86 74.5
q61 4 226 17q134 12 275 18q95 4 211 4h69q136 -1 245 -23q79 -62 150 -160q56 -74 133 -184q7 -99 11 -208q6 -166 7 -251q1 -57 1 -161v-73q-1 -108 -9 -159q-21 -26 -104 -136.5t-134 -168.5q-101 -19 -247 -26q-149 -9 -311 -9q-173 0 -323 7q-151 6 -280 20
q-52 52 -121 161.5t-98 184.5q-2 83 -2 441q0 197 10 415zM690 356q46 -21 100 -25q34 -2 51 -2q31 0 63 3q123 13 190 67q2 60 4.5 185t3.5 156q1 17 1 52q0 166 -22 332q-23 -1 -79 -2t-80.5 -2.5t-66 -6t-75 -14.5t-67.5 -26q-11 -22 -17.5 -91.5t-8 -165.5t-1 -179.5
t2 -173t1.5 -107.5z" />
    <glyph glyph-name="uni1ECE" unicode="&#x1ece;" horiz-adv-x="2109" 
d="M868 2255q21 100 39 151q23 11 52 17q59 13 153 11q56 -1 108.5 -10t72.5 -19q12 -49 16 -98q3 -28 3 -70q2 -41 -3 -61q-20 -18 -66.5 -39.5t-56.5 -27.5q-10 -22 -8 -33q3 -8 -3 -36q-20 -6 -96 -11q-57 -4 -90 -4q-6 25 -6 50q0 2 1 11t2 21t1 19q6 5 21 20
q44 44 76 60q6 33 -2 61q-9 7 -47 8t-73 -4q-65 -6 -94 -16zM109 1518q22 25 98 120.5t141 169t101 95.5q6 1 136.5 13t176.5 15t172.5 12.5t200 10t177.5 0.5t186.5 -8.5t150.5 -22.5q149 -129 329 -455q5 -73 9 -170q8 -135 14 -430q7 -390 -10 -518q-29 -40 -124 -184.5
t-155 -216.5q-224 -43 -651.5 -44.5t-704.5 34.5q-60 68 -142 213t-116 243q-2 164 -2 274q0 202 1 303q2 168 3 295q2 145 9 251zM802 886v-201q2 -97 3 -173q2 -104 2 -115q47 -24 115 -32q30 -3 61 -3q41 0 73 4q148 18 224 91q0 13 4.5 198.5t5 260t-5 223t-18.5 268.5
q-24 -1 -78.5 -2t-78.5 -1.5t-68 -4.5t-72 -10.5t-64.5 -18.5t-70.5 -29q-21 -44 -28 -255q-2 -67 -4 -200z" />
    <glyph glyph-name="uni1ECF" unicode="&#x1ecf;" horiz-adv-x="1802" 
d="M703 1843q21 100 39 151q23 11 52 17q59 13 153 11q56 -1 108.5 -10t72.5 -19q12 -49 16 -98q3 -29 3 -70q2 -41 -3 -61q-20 -18 -66.5 -39.5t-56.5 -27.5q-10 -22 -8 -33q3 -8 -3 -36q-20 -6 -96 -11q-57 -4 -90 -4q-6 25 -6 50q0 2 1 11t2 21t1 19q6 5 21 20
q44 44 76 60q6 33 -2 61q-9 7 -46.5 8t-73.5 -4q-65 -6 -94 -16zM92 1196q19 19 84.5 90.5t120.5 126t86 74.5q61 4 226 17q134 12 275 18q95 4 211 4h69q136 -1 245 -23q79 -62 150 -160q56 -74 133 -184q7 -99 11 -208q6 -166 7 -251q1 -57 1 -161v-73q-1 -108 -9 -159
q-21 -26 -104 -136.5t-134 -168.5q-101 -19 -247 -26q-149 -9 -311 -9q-173 0 -323 7q-151 6 -280 20q-52 52 -121 161.5t-98 184.5q-2 83 -2 441q0 197 10 415zM690 356q46 -21 100 -25q34 -2 51 -2q31 0 63 3q123 13 190 67q2 60 4.5 185t3.5 156q1 17 1 52q0 166 -22 332
q-23 -1 -79 -2t-80.5 -2.5t-66 -6t-75 -14.5t-67.5 -26q-11 -22 -17.5 -91.5t-8 -165.5t-1 -179.5t2 -173t1.5 -107.5z" />
    <glyph glyph-name="uni1ED0" unicode="&#x1ed0;" horiz-adv-x="2109" 
d="M1281 2282q18 27 34.5 61t31.5 71t24.5 63.5t22.5 64t16 46.5q180 0 327 -75q-57 -70 -127 -152q-64 -77 -129 -120q-122 8 -200 41zM109 1518q22 25 98 120.5t141 169t101 95.5q6 1 136.5 13t176.5 15t172.5 12.5t200 10t177.5 0.5t186.5 -8.5t150.5 -22.5
q149 -129 329 -455q5 -73 9 -170q8 -135 14 -430q7 -390 -10 -518q-29 -40 -124 -184.5t-155 -216.5q-224 -43 -651.5 -44.5t-704.5 34.5q-60 68 -142 213t-116 243q-2 164 -2 274q0 202 1 303q2 168 3 295q2 145 9 251zM802 886v-201q2 -97 3 -173q2 -104 2 -115
q47 -24 115 -32q30 -3 61 -3q41 0 73 4q148 18 224 91q0 13 4.5 198.5t5 260t-5 223t-18.5 268.5q-24 -1 -78.5 -2t-78.5 -1.5t-68 -4.5t-72 -10.5t-64.5 -18.5t-70.5 -29q-21 -44 -28 -255q-2 -67 -4 -200zM696 2021q25 70 75.5 165.5t102.5 174.5q61 7 313 7
q76 -140 198 -330q-27 -2 -84 -8t-95 -9.5t-45 -0.5q-11 21 -30.5 51.5t-41 61.5t-24.5 35q-1 1 -3.5 5t-4.5 7.5t-5.5 6t-7.5 2.5q-16 0 -31 -25q-66 -98 -89 -149q-119 -10 -228 6z" />
    <glyph glyph-name="uni1ED1" unicode="&#x1ed1;" horiz-adv-x="1802" 
d="M1144 1868q18 27 34.5 61t31.5 71t24.5 63.5t22.5 64t16 46.5q180 0 327 -75q-57 -70 -127 -152q-65 -77 -129 -120q-122 8 -200 41zM92 1196q19 19 84.5 90.5t120.5 126t86 74.5q61 4 226 17q132 12 274 18q133 6 281 4q136 -1 245 -23q79 -62 150 -160q56 -74 133 -184
q7 -99 11 -208q6 -166 7 -251q2 -166 1 -235q-2 -107 -9 -158q-21 -26 -104 -136.5t-134 -168.5q-101 -19 -247 -26q-149 -9 -311 -9q-173 0 -323 7q-151 6 -280 20q-52 52 -121 161.5t-98 184.5q-2 83 -2 441q0 197 10 415zM690 356q87 -39 213.5 -24t190.5 67
q2 60 4.5 184.5t3.5 156.5q4 188 -21 384q-23 -1 -79 -2t-80.5 -2.5t-66 -6t-75 -14.5t-67.5 -26q-11 -22 -17.5 -91.5t-8 -165.5t-1 -179.5t2 -173t1.5 -107.5zM559 1605q25 70 75.5 165.5t102.5 174.5q61 7 313 7q76 -140 198 -330q-27 -2 -84 -8t-95 -9.5t-45 -0.5
q-11 21 -30.5 51.5t-41 61.5t-24.5 35q-1 1 -3.5 5t-4.5 7.5t-5.5 6t-7.5 2.5q-16 0 -31 -25q-66 -98 -89 -149q-119 -10 -228 6z" />
    <glyph glyph-name="uni1ED2" unicode="&#x1ed2;" horiz-adv-x="2109" 
d="M1136 2511q147 75 325 75q65 -208 130 -305q-99 -36 -200 -41q-65 44 -129 120q-79 94 -126 151zM109 1518q22 25 98 120.5t141 169t101 95.5q6 1 136.5 13t176.5 15t172.5 12.5t200 10t177.5 0.5t186.5 -8.5t150.5 -22.5q149 -129 329 -455q5 -73 9 -170q8 -135 14 -430
q7 -390 -10 -518q-29 -40 -124 -184.5t-155 -216.5q-224 -43 -651.5 -44.5t-704.5 34.5q-60 68 -142 213t-116 243q-2 164 -2 274q0 202 1 303q2 168 3 295q2 145 9 251zM802 886v-201q2 -97 3 -173q2 -104 2 -115q47 -24 115 -32q30 -3 61 -3q41 0 73 4q148 18 224 91
q0 13 4.5 198.5t5 260t-5 223t-18.5 268.5q-24 -1 -78.5 -2t-78.5 -1.5t-68 -4.5t-72 -10.5t-64.5 -18.5t-70.5 -29q-21 -44 -28 -255q-2 -67 -4 -200zM696 2021q25 70 75.5 165.5t102.5 174.5q61 7 313 7q76 -140 198 -330q-27 -2 -84 -8t-95 -9.5t-45 -0.5
q-11 21 -30.5 51.5t-41 61.5t-24.5 35q-1 1 -3.5 5t-4.5 7.5t-5.5 6t-7.5 2.5q-16 0 -31 -25q-66 -98 -89 -149q-119 -10 -228 6z" />
    <glyph glyph-name="uni1ED3" unicode="&#x1ed3;" horiz-adv-x="1802" 
d="M999 2095q147 75 325 75q65 -208 130 -305q-99 -36 -200 -41q-64 44 -129 120q-79 94 -126 151zM92 1196q19 19 84.5 90.5t120.5 126t86 74.5q61 4 226 17q132 12 274 18q133 6 281 4q136 -1 245 -23q79 -62 150 -160q56 -74 133 -184q7 -99 11 -208q6 -166 7 -251
q2 -166 1 -235q-2 -107 -9 -158q-21 -26 -104 -136.5t-134 -168.5q-101 -19 -247 -26q-149 -9 -311 -9q-173 0 -323 7q-151 6 -280 20q-52 52 -121 161.5t-98 184.5q-2 83 -2 441q0 197 10 415zM690 356q87 -39 213.5 -24t190.5 67q2 60 4.5 184.5t3.5 156.5q4 188 -21 384
q-23 -1 -79 -2t-80.5 -2.5t-66 -6t-75 -14.5t-67.5 -26q-11 -22 -17.5 -91.5t-8 -165.5t-1 -179.5t2 -173t1.5 -107.5zM559 1605q25 70 75.5 165.5t102.5 174.5q61 7 313 7q76 -140 198 -330q-27 -2 -84 -8t-95 -9.5t-45 -0.5q-11 21 -30.5 51.5t-41 61.5t-24.5 35
q-1 1 -3.5 5t-4.5 7.5t-5.5 6t-7.5 2.5q-16 0 -31 -25q-66 -98 -89 -149q-119 -10 -228 6z" />
    <glyph glyph-name="uni1ED4" unicode="&#x1ed4;" horiz-adv-x="2109" 
d="M1187 2464q21 100 39 151q23 11 52 17q59 13 153 11q56 -1 108.5 -10t72.5 -19q12 -49 16 -98q3 -28 3 -70q2 -41 -3 -61q-20 -18 -66.5 -39.5t-56.5 -27.5q-10 -22 -8 -33q3 -7 -3 -36q-20 -6 -96 -11q-57 -4 -90 -4q-6 25 -6 50q0 2 1 11t2 21t1 19q6 5 21 20
q44 44 76 60q6 33 -2 61q-9 7 -47 8t-73 -4q-65 -6 -94 -16zM109 1518q22 25 98 120.5t141 169t101 95.5q6 1 136.5 13t176.5 15t172.5 12.5t200 10t177.5 0.5t186.5 -8.5t150.5 -22.5q149 -129 329 -455q5 -73 9 -170q8 -135 14 -430q7 -390 -10 -518q-29 -40 -124 -184.5
t-155 -216.5q-224 -43 -651.5 -44.5t-704.5 34.5q-60 68 -142 213t-116 243q-2 164 -2 274q0 202 1 303q2 168 3 295q2 145 9 251zM802 886v-201q2 -97 3 -173q2 -104 2 -115q47 -24 115 -32q30 -3 61 -3q41 0 73 4q148 18 224 91q0 13 4.5 198.5t5 260t-5 223t-18.5 268.5
q-24 -1 -78.5 -2t-78.5 -1.5t-68 -4.5t-72 -10.5t-64.5 -18.5t-70.5 -29q-21 -44 -28 -255q-2 -67 -4 -200zM696 2021q25 70 75.5 165.5t102.5 174.5q61 7 313 7q76 -140 198 -330q-27 -2 -84 -8t-95 -9.5t-45 -0.5q-11 21 -30.5 51.5t-41 61.5t-24.5 35q-1 1 -3.5 5
t-4.5 7.5t-5.5 6t-7.5 2.5q-16 0 -31 -25q-66 -98 -89 -149q-119 -10 -228 6z" />
    <glyph glyph-name="uni1ED5" unicode="&#x1ed5;" horiz-adv-x="1802" 
d="M1049 2049q21 100 39 151q23 11 52 17q59 13 153 11q56 -1 108.5 -10t72.5 -19q12 -49 16 -98q3 -29 3 -70q2 -41 -3 -61q-20 -18 -66.5 -39.5t-56.5 -27.5q-10 -22 -8 -33q3 -8 -3 -36q-20 -6 -96 -11q-57 -4 -90 -4q-6 25 -6 50q0 2 1 11t2 21t1 19q6 5 21 20
q44 44 76 60q6 33 -2 61q-9 7 -47 8t-73 -4q-65 -6 -94 -16zM92 1196q19 19 84.5 90.5t120.5 126t86 74.5q61 4 226 17q132 12 274 18q133 6 281 4q136 -1 245 -23q79 -62 150 -160q56 -74 133 -184q7 -99 11 -208q6 -166 7 -251q2 -166 1 -235q-2 -107 -9 -158
q-21 -26 -104 -136.5t-134 -168.5q-101 -19 -247 -26q-149 -9 -311 -9q-173 0 -323 7q-151 6 -280 20q-52 52 -121 161.5t-98 184.5q-2 83 -2 441q0 197 10 415zM690 356q87 -39 213.5 -24t190.5 67q2 60 4.5 184.5t3.5 156.5q4 188 -21 384q-23 -1 -79 -2t-80.5 -2.5
t-66 -6t-75 -14.5t-67.5 -26q-11 -22 -17.5 -91.5t-8 -165.5t-1 -179.5t2 -173t1.5 -107.5zM559 1605q25 70 75.5 165.5t102.5 174.5q61 7 313 7q76 -140 198 -330q-27 -2 -84 -8t-95 -9.5t-45 -0.5q-11 21 -30.5 51.5t-41 61.5t-24.5 35q-1 1 -3.5 5t-4.5 7.5t-5.5 6
t-7.5 2.5q-16 0 -31 -25q-66 -98 -89 -149q-119 -10 -228 6z" />
    <glyph glyph-name="uni1ED6" unicode="&#x1ed6;" horiz-adv-x="2109" 
d="M714 2489q111 182 190 209q18 8 38.5 7.5t40 -6t44 -16.5t44.5 -22t46.5 -24t47.5 -21q40 -16 94 25q22 19 44 47q69 -28 99 -75q-166 -214 -241 -209q-12 1 -26.5 4t-32 9t-29.5 10.5t-34 13.5t-31 12q-95 39 -112 35q-33 -13 -81 -72q-80 33 -101 73zM109 1518
q22 25 98 120.5t141 169t101 95.5q6 1 136.5 13t176.5 15t172.5 12.5t200 10t177.5 0.5t186.5 -8.5t150.5 -22.5q149 -129 329 -455q5 -73 9 -170q8 -135 14 -430q7 -390 -10 -518q-29 -40 -124 -184.5t-155 -216.5q-224 -43 -651.5 -44.5t-704.5 34.5q-60 68 -142 213
t-116 243q-2 164 -2 274q0 202 1 303q2 168 3 295q2 145 9 251zM802 886v-201q2 -97 3 -173q2 -104 2 -115q47 -24 115 -32q30 -3 61 -3q41 0 73 4q148 18 224 91q0 13 4.5 198.5t5 260t-5 223t-18.5 268.5q-24 -1 -78.5 -2t-78.5 -1.5t-68 -4.5t-72 -10.5t-64.5 -18.5
t-70.5 -29q-21 -44 -28 -255q-2 -67 -4 -200zM696 2021q25 70 75.5 165.5t102.5 174.5q61 7 313 7q76 -140 198 -330q-27 -2 -84 -8t-95 -9.5t-45 -0.5q-11 21 -30.5 51.5t-41 61.5t-24.5 35q-1 1 -3.5 5t-4.5 7.5t-5.5 6t-7.5 2.5q-16 0 -31 -25q-66 -98 -89 -149
q-119 -10 -228 6z" />
    <glyph glyph-name="uni1ED7" unicode="&#x1ed7;" horiz-adv-x="1802" 
d="M579 2074q111 182 190 209q18 8 38.5 7.5t40 -6t44 -16.5t44.5 -22t46.5 -24t47.5 -21q40 -16 94 25q22 19 44 47q69 -28 99 -75q-166 -214 -241 -209q-12 1 -26.5 4t-32 9t-29.5 10.5t-34 13.5t-31 12q-95 39 -112 35q-33 -13 -81 -72q-80 33 -101 73zM92 1196
q19 19 84.5 90.5t120.5 126t86 74.5q61 4 226 17q132 12 274 18q133 6 281 4q136 -1 245 -23q79 -62 150 -160q56 -74 133 -184q7 -99 11 -208q6 -166 7 -251q2 -166 1 -235q-2 -107 -9 -158q-21 -26 -104 -136.5t-134 -168.5q-101 -19 -247 -26q-149 -9 -311 -9
q-173 0 -323 7q-151 6 -280 20q-52 52 -121 161.5t-98 184.5q-2 83 -2 441q0 197 10 415zM690 356q87 -39 213.5 -24t190.5 67q2 60 4.5 184.5t3.5 156.5q4 188 -21 384q-23 -1 -79 -2t-80.5 -2.5t-66 -6t-75 -14.5t-67.5 -26q-11 -22 -17.5 -91.5t-8 -165.5t-1 -179.5
t2 -173t1.5 -107.5zM559 1605q25 70 75.5 165.5t102.5 174.5q61 7 313 7q76 -140 198 -330q-27 -2 -84 -8t-95 -9.5t-45 -0.5q-11 21 -30.5 51.5t-41 61.5t-24.5 35q-1 1 -3.5 5t-4.5 7.5t-5.5 6t-7.5 2.5q-16 0 -31 -25q-66 -98 -89 -149q-119 -10 -228 6z" />
    <glyph glyph-name="uni1ED8" unicode="&#x1ed8;" horiz-adv-x="2109" 
d="M822 -384q1 36 10 87q13 69 179 100q5 1 17 1t19 -1q72 -8 119 -35q18 -49 26 -96q7 -28 7 -59q0 -22 -3 -43q-14 -30 -103 -51q-49 -10 -80 -13t-58 -3q-15 0 -22 1q-84 2 -101 27q-8 17 -9 37q-2 18 -2 29q0 12 1 19zM109 1518q22 25 98 120.5t141 169t101 95.5
q6 1 136.5 13t176.5 15t172.5 12.5t200 10t177.5 0.5t186.5 -8.5t150.5 -22.5q149 -129 329 -455q5 -73 9 -170q8 -135 14 -430q7 -390 -10 -518q-29 -40 -124 -184.5t-155 -216.5q-224 -43 -651.5 -44.5t-704.5 34.5q-60 68 -142 213t-116 243q-2 164 -2 274q0 202 1 303
q2 168 3 295q2 145 9 251zM802 886v-201q2 -97 3 -173q2 -104 2 -115q47 -24 115 -32q30 -3 61 -3q41 0 73 4q148 18 224 91q0 13 4.5 198.5t5 260t-5 223t-18.5 268.5q-24 -1 -78.5 -2t-78.5 -1.5t-68 -4.5t-72 -10.5t-64.5 -18.5t-70.5 -29q-21 -44 -28 -255
q-2 -67 -4 -200zM696 2021q25 70 75.5 165.5t102.5 174.5q61 7 313 7q76 -140 198 -330q-27 -2 -84 -8t-95 -9.5t-45 -0.5q-11 21 -30.5 51.5t-41 61.5t-24.5 35q-1 1 -3.5 5t-4.5 7.5t-5.5 6t-7.5 2.5q-16 0 -31 -25q-66 -98 -89 -149q-119 -10 -228 6z" />
    <glyph glyph-name="uni1ED9" unicode="&#x1ed9;" horiz-adv-x="1802" 
d="M685 -333q1 36 10 87q13 69 179 100q5 1 17 1t19 -1q72 -8 119 -35q18 -49 26 -96q7 -28 7 -59q0 -22 -3 -43q-14 -30 -103 -51q-49 -10 -80 -13t-58 -3q-15 0 -22 1q-84 2 -101 27q-8 17 -9 37q-2 18 -2 29q0 12 1 19zM92 1196q19 19 84.5 90.5t120.5 126t86 74.5
q61 4 226 17q132 12 274 18q133 6 281 4q136 -1 245 -23q79 -62 150 -160q56 -74 133 -184q7 -99 11 -208q6 -166 7 -251q2 -166 1 -235q-2 -107 -9 -158q-21 -26 -104 -136.5t-134 -168.5q-101 -19 -247 -26q-149 -9 -311 -9q-173 0 -323 7q-151 6 -280 20
q-52 52 -121 161.5t-98 184.5q-2 83 -2 441q0 197 10 415zM690 356q87 -39 213.5 -24t190.5 67q2 60 4.5 184.5t3.5 156.5q4 188 -21 384q-23 -1 -79 -2t-80.5 -2.5t-66 -6t-75 -14.5t-67.5 -26q-11 -22 -17.5 -91.5t-8 -165.5t-1 -179.5t2 -173t1.5 -107.5zM559 1605
q25 70 75.5 165.5t102.5 174.5q61 7 313 7q76 -140 198 -330q-27 -2 -84 -8t-95 -9.5t-45 -0.5q-11 21 -30.5 51.5t-41 61.5t-24.5 35q-1 1 -3.5 5t-4.5 7.5t-5.5 6t-7.5 2.5q-16 0 -31 -25q-66 -98 -89 -149q-119 -10 -228 6z" />
    <glyph glyph-name="uni1EDA" unicode="&#x1eda;" horiz-adv-x="2109" 
d="M913 2059q18 27 34.5 61t31.5 71t24.5 63.5t22.5 64t16 46.5q180 0 327 -75q-57 -70 -127 -152q-64 -76 -129 -120q-122 8 -200 41zM109 1518q22 25 98 120.5t141 169t101 95.5q6 1 136.5 13t176.5 15t172.5 12.5t200 10t177.5 0.5t186.5 -8.5t150.5 -22.5q26 -24 40 -38
q14 6 19 10q19 42 13 187q15 3 38 3q7 0 21 -0.5t41 -1t50 -0.5q93 -2 111 -4q8 -1 19.5 -3t15.5 -2q8 -55 1.5 -146t-27.5 -123q-51 -21 -150 -27q-25 -2 -60 -3q15 -20 45 -62q75 -107 152 -245q5 -73 9 -170q8 -135 14 -430q7 -390 -10 -518q-29 -40 -124 -184.5
t-155 -216.5q-224 -43 -651.5 -44.5t-704.5 34.5q-60 68 -142 213t-116 243q-2 164 -2 274q0 202 1 303q2 168 3 295q2 145 9 251zM802 886v-201q2 -97 3 -173q2 -104 2 -115q47 -24 115 -32q30 -3 61 -3q41 0 73 4q148 18 224 91q0 13 4.5 198.5t5 260t-5 223t-18.5 268.5
q-24 -1 -78.5 -2t-78.5 -1.5t-68 -4.5t-72 -10.5t-64.5 -18.5t-70.5 -29q-21 -44 -28 -255q-2 -67 -4 -200z" />
    <glyph glyph-name="uni1EDB" unicode="&#x1edb;" horiz-adv-x="1802" 
d="M718 1643q18 27 34.5 61t31.5 71t24.5 63.5t22.5 64t16 46.5q180 0 327 -75q-57 -70 -127 -152q-65 -76 -129 -120q-122 8 -200 41zM92 1196q19 19 84.5 90.5t120.5 126t86 74.5q61 4 226 17q134 12 275 18q95 4 211 4h69q136 -1 245 -23q5 -5 8 -7q2 1 5 4q19 42 13 187
q15 3 38 3q7 0 21 -0.5t41 -1t50 -0.5q93 -2 111 -4q8 -1 19.5 -3t15.5 -2q8 -55 1.5 -146t-27.5 -123q-51 -21 -150 -27q-4 -1 -12.5 -1.5t-12.5 -0.5q16 -19 29 -38q56 -74 133 -184q7 -99 11 -208q6 -166 7 -251q1 -57 1 -161v-73q-1 -108 -9 -159q-21 -26 -104 -136.5
t-134 -168.5q-101 -19 -247 -26q-149 -9 -311 -9q-173 0 -323 7q-151 6 -280 20q-52 52 -121 161.5t-98 184.5q-2 126 -2 210v231q0 197 10 415zM690 356q46 -21 100 -25q34 -2 51 -2q31 0 63 3q123 13 190 67q2 60 4.5 185t3.5 156q1 17 1 52q0 166 -22 332q-23 -1 -79 -2
t-80.5 -2.5t-66 -6t-75 -14.5t-67.5 -26q-27 -55 -27 -346v-154q0 -56 2 -130.5t2 -86.5z" />
    <glyph glyph-name="uni1EDC" unicode="&#x1edc;" horiz-adv-x="2109" 
d="M770 2291q147 75 325 75q65 -208 130 -305q-99 -36 -200 -41q-65 44 -129 120q-79 94 -126 151zM109 1518q22 25 98 120.5t141 169t101 95.5q6 1 136.5 13t176.5 15t172.5 12.5t200 10t177.5 0.5t186.5 -8.5t150.5 -22.5q26 -24 40 -38q14 6 19 10q19 42 13 187
q15 3 38 3q7 0 21 -0.5t41 -1t50 -0.5q93 -2 111 -4q8 -1 19.5 -3t15.5 -2q8 -55 1.5 -146t-27.5 -123q-51 -21 -150 -27q-25 -2 -60 -3q15 -20 45 -62q75 -107 152 -245q5 -73 9 -170q8 -135 14 -430q7 -390 -10 -518q-29 -40 -124 -184.5t-155 -216.5
q-224 -43 -651.5 -44.5t-704.5 34.5q-60 68 -142 213t-116 243q-2 164 -2 274q0 202 1 303q2 168 3 295q2 145 9 251zM802 886v-201q2 -97 3 -173q2 -104 2 -115q47 -24 115 -32q30 -3 61 -3q41 0 73 4q148 18 224 91q0 13 4.5 198.5t5 260t-5 223t-18.5 268.5
q-24 -1 -78.5 -2t-78.5 -1.5t-68 -4.5t-72 -10.5t-64.5 -18.5t-70.5 -29q-21 -44 -28 -255q-2 -67 -4 -200z" />
    <glyph glyph-name="uni1EDD" unicode="&#x1edd;" horiz-adv-x="1802" 
d="M613 1873q147 75 325 75q65 -208 130 -305q-99 -36 -200 -41q-64 44 -129 120q-79 94 -126 151zM92 1196q19 19 84.5 90.5t120.5 126t86 74.5q61 4 226 17q134 12 275 18q95 4 211 4h69q136 -1 245 -23q5 -5 8 -7q2 1 5 4q19 42 13 187q15 3 38 3q7 0 21 -0.5t41 -1
t50 -0.5q93 -2 111 -4q8 -1 19.5 -3t15.5 -2q8 -55 1.5 -146t-27.5 -123q-51 -21 -150 -27q-4 -1 -12.5 -1.5t-12.5 -0.5q16 -19 29 -38q56 -74 133 -184q7 -99 11 -208q6 -166 7 -251q1 -57 1 -161v-73q-1 -108 -9 -159q-21 -26 -104 -136.5t-134 -168.5q-101 -19 -247 -26
q-149 -9 -311 -9q-173 0 -323 7q-151 6 -280 20q-52 52 -121 161.5t-98 184.5q-2 126 -2 210v231q0 197 10 415zM690 356q46 -21 100 -25q34 -2 51 -2q31 0 63 3q123 13 190 67q2 60 4.5 185t3.5 156q1 17 1 52q0 166 -22 332q-23 -1 -79 -2t-80.5 -2.5t-66 -6t-75 -14.5
t-67.5 -26q-27 -55 -27 -346v-154q0 -56 2 -130.5t2 -86.5z" />
    <glyph glyph-name="uni1EDE" unicode="&#x1ede;" horiz-adv-x="2109" 
d="M868 2255q21 100 39 151q23 11 52 17q59 13 153 11q56 -1 108.5 -10t72.5 -19q12 -49 16 -98q3 -28 3 -70q2 -41 -3 -61q-20 -18 -66.5 -39.5t-56.5 -27.5q-10 -22 -8 -33q3 -8 -3 -36q-20 -6 -96 -11q-57 -4 -90 -4q-6 25 -6 50q0 2 1 11t2 21t1 19q6 5 21 20
q44 44 76 60q6 33 -2 61q-9 7 -47 8t-73 -4q-65 -6 -94 -16zM109 1518q22 25 98 120.5t141 169t101 95.5q6 1 136.5 13t176.5 15t172.5 12.5t200 10t177.5 0.5t186.5 -8.5t150.5 -22.5q26 -24 40 -38q14 6 19 10q19 42 13 187q15 3 38 3q7 0 21 -0.5t41 -1t50 -0.5
q93 -2 111 -4q8 -1 19.5 -3t15.5 -2q8 -55 1.5 -146t-27.5 -123q-51 -21 -150 -27q-25 -2 -60 -3q15 -20 45 -62q75 -107 152 -245q5 -73 9 -170q8 -135 14 -430q7 -390 -10 -518q-29 -40 -124 -184.5t-155 -216.5q-224 -43 -651.5 -44.5t-704.5 34.5q-60 68 -142 213
t-116 243q-2 164 -2 274q0 202 1 303q2 168 3 295q2 145 9 251zM802 886v-201q2 -97 3 -173q2 -104 2 -115q47 -24 115 -32q30 -3 61 -3q41 0 73 4q148 18 224 91q0 13 4.5 198.5t5 260t-5 223t-18.5 268.5q-24 -1 -78.5 -2t-78.5 -1.5t-68 -4.5t-72 -10.5t-64.5 -18.5
t-70.5 -29q-21 -44 -28 -255q-2 -67 -4 -200z" />
    <glyph glyph-name="uni1EDF" unicode="&#x1edf;" horiz-adv-x="1802" 
d="M703 1843q21 100 39 151q23 11 52 17q59 13 153 11q56 -1 108.5 -10t72.5 -19q12 -49 16 -98q3 -29 3 -70q2 -41 -3 -61q-20 -18 -66.5 -39.5t-56.5 -27.5q-10 -22 -8 -33q3 -8 -3 -36q-20 -6 -96 -11q-57 -4 -90 -4q-6 25 -6 50q0 2 1 11t2 21t1 19q6 5 21 20
q44 44 76 60q6 33 -2 61q-9 7 -46.5 8t-73.5 -4q-65 -6 -94 -16zM92 1196q19 19 84.5 90.5t120.5 126t86 74.5q61 4 226 17q134 12 275 18q95 4 211 4h69q136 -1 245 -23q5 -5 8 -7q2 1 5 4q19 42 13 187q15 3 38 3q7 0 21 -0.5t41 -1t50 -0.5q93 -2 111 -4q8 -1 19.5 -3
t15.5 -2q8 -55 1.5 -146t-27.5 -123q-51 -21 -150 -27q-4 -1 -12.5 -1.5t-12.5 -0.5q16 -19 29 -38q56 -74 133 -184q7 -99 11 -208q6 -166 7 -251q1 -57 1 -161v-73q-1 -108 -9 -159q-21 -26 -104 -136.5t-134 -168.5q-101 -19 -247 -26q-149 -9 -311 -9q-173 0 -323 7
q-151 6 -280 20q-52 52 -121 161.5t-98 184.5q-2 126 -2 210v231q0 197 10 415zM690 356q46 -21 100 -25q34 -2 51 -2q31 0 63 3q123 13 190 67q2 60 4.5 185t3.5 156q1 17 1 52q0 166 -22 332q-23 -1 -79 -2t-80.5 -2.5t-66 -6t-75 -14.5t-67.5 -26q-27 -55 -27 -346v-154
q0 -56 2 -130.5t2 -86.5z" />
    <glyph glyph-name="uni1EE0" unicode="&#x1ee0;" horiz-adv-x="2109" 
d="M737 2136q111 182 190 209q18 8 38.5 7.5t40 -6t44 -16.5t44.5 -22t46.5 -24t47.5 -21q40 -16 94 25q22 19 44 47q69 -28 99 -75q-166 -214 -241 -209q-12 1 -26.5 4t-32 9t-29.5 10.5t-34 13.5t-31 12q-95 39 -112 35q-33 -13 -81 -72q-80 33 -101 73zM109 1518
q22 25 98 120.5t141 169t101 95.5q6 1 136.5 13t176.5 15t172.5 12.5t200 10t177.5 0.5t186.5 -8.5t150.5 -22.5q26 -24 40 -38q14 6 19 10q19 42 13 187q15 3 38 3q7 0 21 -0.5t41 -1t50 -0.5q93 -2 111 -4q8 -1 19.5 -3t15.5 -2q8 -55 1.5 -146t-27.5 -123
q-51 -21 -150 -27q-25 -2 -60 -3q15 -20 45 -62q75 -107 152 -245q5 -73 9 -170q8 -135 14 -430q7 -390 -10 -518q-29 -40 -124 -184.5t-155 -216.5q-224 -43 -651.5 -44.5t-704.5 34.5q-60 68 -142 213t-116 243q-2 164 -2 274q0 202 1 303q2 168 3 295q2 145 9 251z
M802 886v-201q2 -97 3 -173q2 -104 2 -115q47 -24 115 -32q30 -3 61 -3q41 0 73 4q148 18 224 91q0 13 4.5 198.5t5 260t-5 223t-18.5 268.5q-24 -1 -78.5 -2t-78.5 -1.5t-68 -4.5t-72 -10.5t-64.5 -18.5t-70.5 -29q-21 -44 -28 -255q-2 -67 -4 -200z" />
    <glyph glyph-name="uni1EE1" unicode="&#x1ee1;" horiz-adv-x="1802" 
d="M577 1712q111 182 190 209q18 8 38.5 7.5t40 -6t44 -16.5t44.5 -22t46.5 -24t47.5 -21q40 -16 94 25q22 19 44 47q69 -28 99 -75q-166 -214 -241 -209q-12 1 -26.5 4t-32 9t-29.5 10.5t-34 13.5t-31 12q-95 39 -112 35q-33 -13 -81 -72q-80 33 -101 73zM92 1196
q19 19 84.5 90.5t120.5 126t86 74.5q61 4 226 17q134 12 275 18q95 4 211 4h69q136 -1 245 -23q5 -5 8 -7q2 1 5 4q19 42 13 187q15 3 38 3q7 0 21 -0.5t41 -1t50 -0.5q93 -2 111 -4q8 -1 19.5 -3t15.5 -2q8 -55 1.5 -146t-27.5 -123q-51 -21 -150 -27q-4 -1 -12.5 -1.5
t-12.5 -0.5q16 -19 29 -38q56 -74 133 -184q7 -99 11 -208q6 -166 7 -251q1 -57 1 -161v-73q-1 -108 -9 -159q-21 -26 -104 -136.5t-134 -168.5q-101 -19 -247 -26q-149 -9 -311 -9q-173 0 -323 7q-151 6 -280 20q-52 52 -121 161.5t-98 184.5q-2 126 -2 210v231
q0 197 10 415zM690 356q46 -21 100 -25q34 -2 51 -2q31 0 63 3q123 13 190 67q2 60 4.5 185t3.5 156q1 17 1 52q0 166 -22 332q-23 -1 -79 -2t-80.5 -2.5t-66 -6t-75 -14.5t-67.5 -26q-27 -55 -27 -346v-154q0 -56 2 -130.5t2 -86.5z" />
    <glyph glyph-name="uni1EE2" unicode="&#x1ee2;" horiz-adv-x="2109" 
d="M822 -384q1 36 10 87q13 69 179 100q5 1 17 1t19 -1q72 -8 119 -35q18 -49 26 -96q7 -28 7 -59q0 -22 -3 -43q-14 -30 -103 -51q-49 -10 -80 -13t-58 -3q-15 0 -22 1q-84 2 -101 27q-8 17 -9 37q-2 18 -2 29q0 12 1 19zM109 1518q22 25 98 120.5t141 169t101 95.5
q6 1 136.5 13t176.5 15t172.5 12.5t200 10t177.5 0.5t186.5 -8.5t150.5 -22.5q26 -24 40 -38q14 6 19 10q19 42 13 187q15 3 38 3q7 0 21 -0.5t41 -1t50 -0.5q93 -2 111 -4q8 -1 19.5 -3t15.5 -2q8 -55 1.5 -146t-27.5 -123q-51 -21 -150 -27q-25 -2 -60 -3q15 -20 45 -62
q75 -107 152 -245q5 -73 9 -170q8 -135 14 -430q7 -390 -10 -518q-29 -40 -124 -184.5t-155 -216.5q-224 -43 -651.5 -44.5t-704.5 34.5q-60 68 -142 213t-116 243q-2 164 -2 274q0 202 1 303q2 168 3 295q2 145 9 251zM802 886v-201q2 -97 3 -173q2 -104 2 -115
q47 -24 115 -32q30 -3 61 -3q41 0 73 4q148 18 224 91q0 13 4.5 198.5t5 260t-5 223t-18.5 268.5q-24 -1 -78.5 -2t-78.5 -1.5t-68 -4.5t-72 -10.5t-64.5 -18.5t-70.5 -29q-21 -44 -28 -255q-2 -67 -4 -200z" />
    <glyph glyph-name="uni1EE3" unicode="&#x1ee3;" horiz-adv-x="1802" 
d="M685 -333q1 36 10 87q13 69 179 100q5 1 17 1t19 -1q72 -8 119 -35q18 -49 26 -96q7 -28 7 -59q0 -22 -3 -43q-14 -30 -103 -51q-49 -10 -80 -13t-58 -3q-15 0 -22 1q-84 2 -101 27q-8 17 -9 37q-2 18 -2 29q0 12 1 19zM92 1196q19 19 84.5 90.5t120.5 126t86 74.5
q61 4 226 17q134 12 275 18q95 4 211 4h69q136 -1 245 -23q5 -5 8 -7q2 1 5 4q19 42 13 187q15 3 38 3q7 0 21 -0.5t41 -1t50 -0.5q93 -2 111 -4q8 -1 19.5 -3t15.5 -2q8 -55 1.5 -146t-27.5 -123q-51 -21 -150 -27q-4 -1 -12.5 -1.5t-12.5 -0.5q16 -19 29 -38
q56 -74 133 -184q7 -99 11 -208q6 -166 7 -251q1 -57 1 -161v-73q-1 -108 -9 -159q-21 -26 -104 -136.5t-134 -168.5q-101 -19 -247 -26q-149 -9 -311 -9q-173 0 -323 7q-151 6 -280 20q-52 52 -121 161.5t-98 184.5q-2 126 -2 210v231q0 197 10 415zM690 356
q46 -21 100 -25q34 -2 51 -2q31 0 63 3q123 13 190 67q2 60 4.5 185t3.5 156q1 17 1 52q0 166 -22 332q-23 -1 -79 -2t-80.5 -2.5t-66 -6t-75 -14.5t-67.5 -26q-27 -55 -27 -346v-154q0 -56 2 -130.5t2 -86.5z" />
    <glyph glyph-name="uni1EE4" unicode="&#x1ee4;" horiz-adv-x="1994" 
d="M795 -304q1 36 10 87q13 69 179 100q5 1 17 1t19 -1q72 -8 119 -35q18 -49 26 -96q7 -28 7 -59q0 -22 -3 -43q-14 -30 -103 -51q-49 -10 -80 -13t-58 -3q-15 0 -22 1q-84 2 -101 27q-8 17 -9 37q-2 18 -2 29q0 12 1 19zM122 1130v269q2 288 17 405q164 20 317 24
q18 1 55 1q125 0 273 -17q-14 -197 -18 -368q-3 -137 -3 -266v-63q1 -198 23 -589q43 -21 100 -28q36 -5 73 -6q15 0 47 2q146 15 208 81q0 115 -3.5 574.5t-0.5 667.5q160 37 323 37h4q44 0 65 -1q86 0 268 2q-1 -110 -5 -339t-6.5 -390t-3 -356t4.5 -326
q-25 -81 -101.5 -205.5t-152.5 -220.5q-117 -4 -273 -12q-192 -9 -322 -14q-166 -6 -332 -6q-160 0 -302 14q-58 62 -137.5 196t-106.5 218q0 73 -5 322.5t-6 393.5z" />
    <glyph glyph-name="uni1EE5" unicode="&#x1ee5;" horiz-adv-x="1777" 
d="M682 -308q1 36 10 87q13 69 179 100q5 1 17 1t19 -1q72 -8 119 -35q18 -49 26 -96q7 -28 7 -59q0 -22 -3 -43q-14 -30 -103 -51q-49 -10 -80 -13q-32 -3 -58 -3q-15 0 -22 1q-84 2 -101 27q-8 17 -9 37q-2 18 -2 29q0 12 1 19zM110 1048v70q2 244 15 326q147 18 285 21
h40q120 0 257 -15q-11 -145 -16 -295q-4 -100 -4 -217v-46q1 -207 22 -472q40 -14 90 -20q24 -3 73 -5q22 0 34 1q119 7 188 63q0 75 -5 508t1 485q150 29 293 29q163 0 300 4q-1 -29 -5 -208t-5 -258t-3 -223t-1 -249t4 -191q-21 -65 -89 -163t-140 -179
q-77 -1 -240.5 -7.5t-295.5 -11.5t-293.5 -4.5t-276.5 9.5q-53 53 -123.5 159t-93.5 173q0 70 -6 352q0 34 -1.5 106.5t-2.5 111.5q-1 49 -1 146z" />
    <glyph glyph-name="uni1EE6" unicode="&#x1ee6;" horiz-adv-x="1994" 
d="M795 2145q21 100 39 151q23 11 52 17q59 13 153 11q56 -1 108.5 -10t72.5 -19q12 -49 16 -98q3 -28 3 -70q2 -41 -3 -61q-20 -18 -66.5 -39.5t-56.5 -27.5q-10 -22 -8 -33q3 -8 -3 -36q-20 -6 -96 -11q-57 -4 -90 -4q-6 25 -6 50q0 2 1 11t2 21t1 19q6 5 21 20
q44 44 76 60q6 33 -2 61q-9 7 -46.5 8t-73.5 -4q-65 -6 -94 -16zM122 1130v269q2 288 17 405q164 20 317 24q18 1 55 1q125 0 273 -17q-14 -197 -18 -368q-3 -137 -3 -266v-63q1 -198 23 -589q43 -21 100 -28q36 -5 73 -6q15 0 47 2q146 15 208 81q0 115 -3.5 574.5
t-0.5 667.5q160 37 323 37h4q44 0 65 -1q86 0 268 2q-1 -110 -5 -339t-6.5 -390t-3 -356t4.5 -326q-25 -81 -101.5 -205.5t-152.5 -220.5q-117 -4 -273 -12q-192 -9 -322 -14q-166 -6 -332 -6q-160 0 -302 14q-58 62 -137.5 196t-106.5 218q0 73 -5 322.5t-6 393.5z" />
    <glyph glyph-name="uni1EE7" unicode="&#x1ee7;" horiz-adv-x="1777" 
d="M698 1790q21 100 39 151q23 11 52 17q59 13 153 11q56 -1 108.5 -10t72.5 -19q12 -49 16 -98q3 -29 3 -70q2 -41 -3 -61q-20 -18 -66.5 -39.5t-56.5 -27.5q-10 -22 -8 -33q3 -7 -3 -36q-20 -6 -96 -11q-57 -4 -90 -4q-6 25 -6 50q0 2 1 11t2 21t1 19q6 5 21 20
q44 44 76 60q6 33 -2 61q-9 7 -46.5 8t-73.5 -4q-65 -6 -94 -16zM110 1048v70q2 244 15 326q147 18 285 21h40q120 0 257 -15q-11 -145 -16 -295q-4 -100 -4 -217v-46q1 -207 22 -472q40 -14 90 -20q24 -3 73 -5q22 0 34 1q119 7 188 63q0 75 -5 508t1 485q150 29 293 29
q163 0 300 4q-1 -29 -5 -208t-5 -258t-3 -223t-1 -249t4 -191q-21 -65 -89 -163t-140 -179q-77 -1 -240.5 -7.5t-295.5 -11.5t-293.5 -4.5t-276.5 9.5q-53 53 -123.5 159t-93.5 173q0 70 -6 352q0 34 -1.5 106.5t-2.5 111.5q-1 49 -1 146z" />
    <glyph glyph-name="uni1EE8" unicode="&#x1ee8;" horiz-adv-x="1994" 
d="M841 1955q18 27 34.5 61t31.5 71t24.5 63.5t22.5 64t16 46.5q180 0 327 -75q-57 -70 -127 -152q-64 -76 -129 -120q-122 8 -200 41zM122 1130v269q2 288 17 405q164 20 317 24q18 1 55 1q125 0 273 -17q-14 -197 -18 -368q-3 -137 -3 -266v-63q1 -198 23 -589
q43 -21 100 -28q36 -5 73 -6q15 0 47 2q146 15 208 81q0 115 -3.5 574.5t-0.5 667.5q160 37 323 37h4q44 0 65 -1h92q2 1 5 1q14 4 27 13q19 42 13 187q15 3 38 3q7 0 21 -0.5t41 -1t50 -0.5q93 -2 111 -4q8 -1 19.5 -3t15.5 -2q8 -55 1.5 -146t-27.5 -123q-29 -12 -66 -18
q-33 -6 -75 -9q0 -33 -1.5 -113.5t-2.5 -126.5q-16 -731 -4 -1066q-25 -81 -101.5 -205.5t-152.5 -220.5q-117 -4 -273 -12q-192 -9 -322 -14q-166 -6 -332 -6q-160 0 -302 14q-58 62 -137.5 196t-106.5 218q0 73 -5 322.5t-6 393.5z" />
    <glyph glyph-name="uni1EE9" unicode="&#x1ee9;" horiz-adv-x="1812" 
d="M771 1583q18 27 34.5 61t31.5 71t24.5 63.5t22.5 64t16 46.5q180 0 327 -75q-57 -70 -127 -152q-64 -76 -129 -120q-122 8 -200 41zM110 1048v70q2 244 15 326q147 18 285 21h40q120 0 257 -15q-11 -145 -16 -295q-4 -100 -4 -217v-46q1 -207 22 -472q40 -14 90 -20
q24 -3 73 -5q22 0 34 1q119 7 188 63q0 75 -5 508t1 485q150 29 293 29h121q15 3 27 6q14 4 27 13q19 42 13 187q15 3 38 3q7 0 21 -0.5t41 -1t50 -0.5q93 -2 111 -4q8 -1 19.5 -3t15.5 -2q8 -55 1.5 -146t-27.5 -123q-51 -21 -150 -27q-3 -1 -10 -1q0 -25 -1.5 -83
t-2.5 -91q-15 -546 -4 -852q-21 -65 -89 -163t-140 -179q-77 -1 -240.5 -7.5t-295.5 -11.5t-293.5 -4.5t-276.5 9.5q-53 53 -123.5 159t-93.5 173q0 70 -6 352q0 34 -1.5 106.5t-2.5 111.5q-1 49 -1 146z" />
    <glyph glyph-name="uni1EEA" unicode="&#x1eea;" horiz-adv-x="1994" 
d="M715 2188q147 75 325 75q65 -208 130 -305q-99 -36 -200 -41q-64 43 -129 120q-79 94 -126 151zM122 1130v269q2 288 17 405q164 20 317 24q18 1 55 1q125 0 273 -17q-14 -197 -18 -368q-3 -137 -3 -266v-63q1 -198 23 -589q43 -21 100 -28q36 -5 73 -6q15 0 47 2
q146 15 208 81q0 115 -3.5 574.5t-0.5 667.5q160 37 323 37h4q44 0 65 -1h92q2 1 5 1q14 4 27 13q19 42 13 187q15 3 38 3q7 0 21 -0.5t41 -1t50 -0.5q93 -2 111 -4q8 -1 19.5 -3t15.5 -2q8 -55 1.5 -146t-27.5 -123q-29 -12 -66 -18q-33 -6 -75 -9q0 -33 -1.5 -113.5
t-2.5 -126.5q-16 -731 -4 -1066q-25 -81 -101.5 -205.5t-152.5 -220.5q-117 -4 -273 -12q-192 -9 -322 -14q-166 -6 -332 -6q-160 0 -302 14q-58 62 -137.5 196t-106.5 218q0 73 -5 322.5t-6 393.5z" />
    <glyph glyph-name="uni1EEB" unicode="&#x1eeb;" horiz-adv-x="1812" 
d="M632 1813q147 75 325 75q65 -208 130 -305q-99 -36 -200 -41q-65 44 -129 120q-79 94 -126 151zM110 1048v70q2 244 15 326q147 18 285 21h40q120 0 257 -15q-11 -145 -16 -295q-4 -100 -4 -217v-46q1 -207 22 -472q40 -14 90 -20q24 -3 73 -5q22 0 34 1q119 7 188 63
q0 75 -5 508t1 485q150 29 293 29h121q15 3 27 6q14 4 27 13q19 42 13 187q15 3 38 3q7 0 21 -0.5t41 -1t50 -0.5q93 -2 111 -4q8 -1 19.5 -3t15.5 -2q8 -55 1.5 -146t-27.5 -123q-51 -21 -150 -27q-3 -1 -10 -1q0 -25 -1.5 -83t-2.5 -91q-15 -546 -4 -852q-21 -65 -89 -163
t-140 -179q-77 -1 -240.5 -7.5t-295.5 -11.5t-293.5 -4.5t-276.5 9.5q-53 53 -123.5 159t-93.5 173q0 70 -6 352q0 34 -1.5 106.5t-2.5 111.5q-1 49 -1 146z" />
    <glyph glyph-name="uni1EEC" unicode="&#x1eec;" horiz-adv-x="1994" 
d="M795 2145q21 100 39 151q23 11 52 17q59 13 153 11q56 -1 108.5 -10t72.5 -19q12 -49 16 -98q3 -28 3 -70q2 -41 -3 -61q-20 -18 -66.5 -39.5t-56.5 -27.5q-10 -22 -8 -33q3 -8 -3 -36q-20 -6 -96 -11q-57 -4 -90 -4q-6 25 -6 50q0 2 1 11t2 21t1 19q6 5 21 20
q44 44 76 60q6 33 -2 61q-9 7 -46.5 8t-73.5 -4q-65 -6 -94 -16zM122 1130v269q2 288 17 405q164 20 317 24q18 1 55 1q125 0 273 -17q-14 -197 -18 -368q-3 -137 -3 -266v-63q1 -198 23 -589q43 -21 100 -28q36 -5 73 -6q15 0 47 2q146 15 208 81q0 115 -3.5 574.5
t-0.5 667.5q160 37 323 37h4q44 0 65 -1h92q2 1 5 1q14 4 27 13q19 42 13 187q15 3 38 3q7 0 21 -0.5t41 -1t50 -0.5q93 -2 111 -4q8 -1 19.5 -3t15.5 -2q8 -55 1.5 -146t-27.5 -123q-29 -12 -66 -18q-33 -6 -75 -9q0 -33 -1.5 -113.5t-2.5 -126.5q-16 -731 -4 -1066
q-25 -81 -101.5 -205.5t-152.5 -220.5q-117 -4 -273 -12q-192 -9 -322 -14q-166 -6 -332 -6q-160 0 -302 14q-58 62 -137.5 196t-106.5 218q0 73 -5 322.5t-6 393.5z" />
    <glyph glyph-name="uni1EED" unicode="&#x1eed;" horiz-adv-x="1812" 
d="M698 1790q21 100 39 151q23 11 52 17q59 13 153 11q56 -1 108.5 -10t72.5 -19q12 -49 16 -98q3 -29 3 -70q2 -41 -3 -61q-20 -18 -66.5 -39.5t-56.5 -27.5q-10 -22 -8 -33q3 -7 -3 -36q-20 -6 -96 -11q-57 -4 -90 -4q-6 25 -6 50q0 2 1 11t2 21t1 19q6 5 21 20
q44 44 76 60q6 33 -2 61q-9 7 -46.5 8t-73.5 -4q-65 -6 -94 -16zM110 1048v70q2 244 15 326q147 18 285 21h40q120 0 257 -15q-11 -145 -16 -295q-4 -100 -4 -217v-46q1 -207 22 -472q40 -14 90 -20q24 -3 73 -5q22 0 34 1q119 7 188 63q0 75 -5 508t1 485q150 29 293 29
h121q15 3 27 6q14 4 27 13q19 42 13 187q15 3 38 3q7 0 21 -0.5t41 -1t50 -0.5q93 -2 111 -4q8 -1 19.5 -3t15.5 -2q8 -55 1.5 -146t-27.5 -123q-51 -21 -150 -27q-3 -1 -10 -1q0 -25 -1.5 -83t-2.5 -91q-15 -546 -4 -852q-21 -65 -89 -163t-140 -179q-77 -1 -240.5 -7.5
t-295.5 -11.5t-293.5 -4.5t-276.5 9.5q-53 53 -123.5 159t-93.5 173q0 70 -6 352q0 34 -1.5 106.5t-2.5 111.5q-1 49 -1 146z" />
    <glyph glyph-name="uni1EEE" unicode="&#x1eee;" horiz-adv-x="1994" 
d="M682 2026q111 182 190 209q18 8 38.5 7.5t40 -6t44 -16.5t44.5 -22t46.5 -24t47.5 -21q40 -16 94 25q22 19 44 47q69 -28 99 -75q-166 -214 -241 -209q-12 1 -26.5 4t-32 9t-29.5 10.5t-34 13.5t-31 12q-95 39 -112 35q-33 -13 -81 -72q-80 33 -101 73zM122 1130v269
q2 288 17 405q164 20 317 24q18 1 55 1q125 0 273 -17q-14 -197 -18 -368q-3 -137 -3 -266v-63q1 -198 23 -589q43 -21 100 -28q36 -5 73 -6q15 0 47 2q146 15 208 81q0 115 -3.5 574.5t-0.5 667.5q160 37 323 37h4q44 0 65 -1h92q2 1 5 1q14 4 27 13q19 42 13 187
q15 3 38 3q7 0 21 -0.5t41 -1t50 -0.5q93 -2 111 -4q8 -1 19.5 -3t15.5 -2q8 -55 1.5 -146t-27.5 -123q-29 -12 -66 -18q-33 -6 -75 -9q0 -33 -1.5 -113.5t-2.5 -126.5q-16 -731 -4 -1066q-25 -81 -101.5 -205.5t-152.5 -220.5q-117 -4 -273 -12q-192 -9 -322 -14
q-166 -6 -332 -6q-160 0 -302 14q-58 62 -137.5 196t-106.5 218q0 73 -5 322.5t-6 393.5z" />
    <glyph glyph-name="uni1EEF" unicode="&#x1eef;" horiz-adv-x="1812" 
d="M585 1647q111 182 190 209q18 8 38.5 7.5t40 -6t44 -16.5t44.5 -22t46.5 -24t47.5 -21q40 -16 94 25q22 19 44 47q69 -28 99 -75q-166 -214 -241 -209q-12 1 -26.5 4t-32 9t-29.5 10.5t-34 13.5t-31 12q-95 39 -112 35q-33 -13 -81 -72q-80 33 -101 73zM110 1048v70
q2 244 15 326q147 18 285 21h40q120 0 257 -15q-11 -145 -16 -295q-4 -100 -4 -217v-46q1 -207 22 -472q40 -14 90 -20q24 -3 73 -5q22 0 34 1q119 7 188 63q0 75 -5 508t1 485q150 29 293 29h121q15 3 27 6q14 4 27 13q19 42 13 187q15 3 38 3q7 0 21 -0.5t41 -1t50 -0.5
q93 -2 111 -4q8 -1 19.5 -3t15.5 -2q8 -55 1.5 -146t-27.5 -123q-51 -21 -150 -27q-3 -1 -10 -1q0 -25 -1.5 -83t-2.5 -91q-15 -546 -4 -852q-21 -65 -89 -163t-140 -179q-77 -1 -240.5 -7.5t-295.5 -11.5t-293.5 -4.5t-276.5 9.5q-53 53 -123.5 159t-93.5 173q0 70 -6 352
q0 34 -1.5 106.5t-2.5 111.5q-1 49 -1 146z" />
    <glyph glyph-name="uni1EF0" unicode="&#x1ef0;" horiz-adv-x="1994" 
d="M795 -304q1 36 10 87q13 69 179 100q5 1 17 1t19 -1q72 -8 119 -35q18 -49 26 -96q7 -28 7 -59q0 -22 -3 -43q-14 -30 -103 -51q-49 -10 -80 -13t-58 -3q-15 0 -22 1q-84 2 -101 27q-8 17 -9 37q-2 18 -2 29q0 12 1 19zM122 1130v269q2 288 17 405q164 20 317 24
q18 1 55 1q125 0 273 -17q-14 -197 -18 -368q-3 -137 -3 -266v-63q1 -198 23 -589q43 -21 100 -28q36 -5 73 -6q15 0 47 2q146 15 208 81q0 115 -3.5 574.5t-0.5 667.5q160 37 323 37h4q44 0 65 -1h92q2 1 5 1q14 4 27 13q19 42 13 187q15 3 38 3q7 0 21 -0.5t41 -1t50 -0.5
q93 -2 111 -4q8 -1 19.5 -3t15.5 -2q8 -55 1.5 -146t-27.5 -123q-29 -12 -66 -18q-33 -6 -75 -9q0 -33 -1.5 -113.5t-2.5 -126.5q-16 -731 -4 -1066q-25 -81 -101.5 -205.5t-152.5 -220.5q-117 -4 -273 -12q-192 -9 -322 -14q-166 -6 -332 -6q-160 0 -302 14
q-58 62 -137.5 196t-106.5 218q0 73 -5 322.5t-6 393.5z" />
    <glyph glyph-name="uni1EF1" unicode="&#x1ef1;" horiz-adv-x="1812" 
d="M682 -308q1 36 10 87q13 69 179 100q5 1 17 1t19 -1q72 -8 119 -35q18 -49 26 -96q7 -28 7 -59q0 -22 -3 -43q-14 -30 -103 -51q-49 -10 -80 -13q-32 -3 -58 -3q-15 0 -22 1q-84 2 -101 27q-8 17 -9 37q-2 18 -2 29q0 12 1 19zM110 1048v70q2 244 15 326q147 18 285 21
h40q120 0 257 -15q-11 -145 -16 -295q-4 -100 -4 -217v-46q1 -207 22 -472q40 -14 90 -20q24 -3 73 -5q22 0 34 1q119 7 188 63q0 75 -5 508t1 485q150 29 293 29h121q15 3 27 6q14 4 27 13q19 42 13 187q15 3 38 3q7 0 21 -0.5t41 -1t50 -0.5q93 -2 111 -4q8 -1 19.5 -3
t15.5 -2q8 -55 1.5 -146t-27.5 -123q-51 -21 -150 -27q-3 -1 -10 -1q0 -25 -1.5 -83t-2.5 -91q-15 -546 -4 -852q-21 -65 -89 -163t-140 -179q-77 -1 -240.5 -7.5t-295.5 -11.5t-293.5 -4.5t-276.5 9.5q-53 53 -123.5 159t-93.5 173q0 70 -6 352q0 34 -1.5 106.5t-2.5 111.5
q-1 49 -1 146z" />
    <glyph glyph-name="Ygrave" unicode="&#x1ef2;" horiz-adv-x="1974" 
d="M702 2267q147 75 325 75q65 -208 130 -305q-99 -36 -200 -41q-65 44 -129 120q-79 94 -126 151zM74 1872q50 3 252 19.5t278 17.5q15 1 40 1q34 0 46 -3q12 -58 46 -132q40 -89 72 -154q12 -24 35.5 -72t34.5 -70q36 -70 44 -90q4 -18 34 -57.5t50 -39.5q34 0 57 27
q18 22 31 41q25 53 109.5 248.5t139.5 296.5q98 5 172 5h27q132 -1 235.5 -13t141.5 -25q-106 -170 -321 -566q-232 -426 -334 -597q-8 -423 -19 -693q-78 -15 -145 -19q-56 -4 -127 -4h-26q-50 0 -148.5 4.5t-145.5 4.5q0 109 -2 228.5t-6 273.5t-6 229q-115 145 -328 560
q-194 395 -237 579z" />
    <glyph glyph-name="ygrave" unicode="&#x1ef3;" horiz-adv-x="1777" 
d="M593 1884q147 75 325 75q65 -208 130 -305q-99 -36 -200 -41q-64 43 -129 120q-79 94 -126 151zM66 1497q299 25 478 31q13 1 36 1q30 0 41 -3q19 -68 107 -230q94 -169 101 -186q5 -16 31.5 -46t44.5 -30q31 0 51 21q22 23 27 35q27 49 102 201.5t123 230.5q80 7 162 7
h20q236 -3 336 -32q-89 -128 -293 -460.5t-296 -469.5q-1 -55 -17 -553q-58 -12 -135.5 -16.5t-125.5 -4t-148.5 4t-122.5 4.5q0 218 -13 584q-117 135 -295 448q-174 315 -214 463z" />
    <glyph glyph-name="uni1EF4" unicode="&#x1ef4;" horiz-adv-x="1974" 
d="M744 -304q1 36 10 87q13 69 179 100q5 1 17 1t19 -1q72 -8 119 -35q18 -49 26 -96q7 -28 7 -59q0 -22 -3 -43q-14 -30 -103 -51q-49 -10 -80 -13q-32 -3 -58 -3q-15 0 -22 1q-84 2 -101 27q-8 17 -9 37q-2 18 -2 29q0 12 1 19zM74 1872q50 3 252 19.5t278 17.5q15 1 40 1
q34 0 46 -3q12 -58 46 -132q40 -89 72 -154q12 -24 35.5 -72t34.5 -70q36 -70 44 -90q4 -18 34 -57.5t50 -39.5q34 0 57 27q18 22 31 41q25 53 109.5 248.5t139.5 296.5q98 5 172 5h27q132 -1 235.5 -13t141.5 -25q-106 -170 -321 -566q-232 -426 -334 -597
q-8 -423 -19 -693q-78 -15 -145 -19q-56 -4 -127 -4h-26q-50 0 -148.5 4.5t-145.5 4.5q0 109 -2 228.5t-6 273.5t-6 229q-115 145 -328 560q-194 395 -237 579z" />
    <glyph glyph-name="uni1EF5" unicode="&#x1ef5;" horiz-adv-x="1777" 
d="M654 -308q1 36 10 87q13 69 179 100q5 1 17 1t19 -1q72 -8 119 -35q18 -49 26 -96q7 -28 7 -59q0 -22 -3 -43q-14 -30 -103 -51q-49 -10 -80 -13t-58 -3q-15 0 -22 1q-84 2 -101 27q-8 17 -9 37q-2 18 -2 29q0 12 1 19zM66 1497q299 25 478 31q13 1 36 1q30 0 41 -3
q19 -68 107 -230q94 -169 101 -186q5 -16 31.5 -46t44.5 -30q31 0 51 21q22 23 27 35q27 49 102 201.5t123 230.5q80 7 162 7h20q236 -3 336 -32q-89 -128 -293 -460.5t-296 -469.5q-1 -55 -17 -553q-58 -12 -135.5 -16.5t-125.5 -4t-148.5 4t-122.5 4.5q0 218 -13 584
q-117 135 -295 448q-174 315 -214 463z" />
    <glyph glyph-name="uni1EF6" unicode="&#x1ef6;" horiz-adv-x="1974" 
d="M793 2213q21 100 39 151q23 11 52 17q59 13 153 11q56 -1 108.5 -10t72.5 -19q12 -49 16 -98q3 -28 3 -70q2 -41 -3 -61q-20 -18 -66.5 -39.5t-56.5 -27.5q-10 -22 -8 -33q3 -8 -3 -36q-20 -6 -96 -11q-57 -4 -90 -4q-6 25 -6 50q0 2 1 11t2 21t1 19q6 5 21 20
q44 44 76 60q6 33 -2 61q-9 7 -46.5 8t-73.5 -4q-65 -6 -94 -16zM74 1872q50 3 252 19.5t278 17.5q15 1 40 1q34 0 46 -3q12 -58 46 -132q40 -89 72 -154q12 -24 35.5 -72t34.5 -70q36 -70 44 -90q4 -18 34 -57.5t50 -39.5q34 0 57 27q18 22 31 41q25 53 109.5 248.5
t139.5 296.5q98 5 172 5h27q132 -1 235.5 -13t141.5 -25q-106 -170 -321 -566q-232 -426 -334 -597q-8 -423 -19 -693q-78 -15 -145 -19q-56 -4 -127 -4h-26q-50 0 -148.5 4.5t-145.5 4.5q0 109 -2 228.5t-6 273.5t-6 229q-115 145 -328 560q-194 395 -237 579z" />
    <glyph glyph-name="uni1EF7" unicode="&#x1ef7;" horiz-adv-x="1777" 
d="M685 1847q21 100 39 151q23 11 52 17q59 13 153 11q56 -1 108.5 -10t72.5 -19q12 -49 16 -98q3 -29 3 -70q2 -41 -3 -61q-20 -18 -66.5 -39.5t-56.5 -27.5q-10 -22 -8 -33q3 -8 -3 -36q-20 -6 -96 -11q-57 -4 -90 -4q-6 26 -6 50q0 2 1 11t2 21t1 19q6 5 21 20
q44 44 76 60q6 33 -2 61q-9 7 -46.5 8t-73.5 -4q-65 -6 -94 -16zM66 1497q299 25 478 31q13 1 36 1q30 0 41 -3q19 -68 107 -230q94 -169 101 -186q5 -16 31.5 -46t44.5 -30q31 0 51 21q22 23 27 35q27 49 102 201.5t123 230.5q80 7 162 7h20q236 -3 336 -32
q-89 -128 -293 -460.5t-296 -469.5q-1 -55 -17 -553q-58 -12 -135.5 -16.5t-125.5 -4t-148.5 4t-122.5 4.5q0 218 -13 584q-117 135 -295 448q-174 315 -214 463z" />
    <glyph glyph-name="uni1EF8" unicode="&#x1ef8;" horiz-adv-x="1974" 
d="M664 2088q111 182 190 209q18 8 38.5 7.5t40 -6t44 -16.5t44.5 -22t46.5 -24t47.5 -21q40 -16 94 25q22 19 44 47q69 -28 99 -75q-166 -214 -241 -209q-12 1 -26.5 4t-32 9t-29.5 10.5t-34 13.5t-31 12q-95 39 -112 35q-33 -13 -81 -72q-80 33 -101 73zM74 1872
q50 3 252 19.5t278 17.5q15 1 40 1q34 0 46 -3q12 -58 46 -132q40 -89 72 -154q12 -24 35.5 -72t34.5 -70q36 -70 44 -90q4 -18 34 -57.5t50 -39.5q34 0 57 27q18 22 31 41q25 53 109.5 248.5t139.5 296.5q98 5 172 5h27q132 -1 235.5 -13t141.5 -25q-106 -170 -321 -566
q-232 -426 -334 -597q-8 -423 -19 -693q-78 -15 -145 -19q-56 -4 -127 -4h-26q-50 0 -148.5 4.5t-145.5 4.5q0 109 -2 228.5t-6 273.5t-6 229q-115 145 -328 560q-194 395 -237 579z" />
    <glyph glyph-name="uni1EF9" unicode="&#x1ef9;" horiz-adv-x="1777" 
d="M578 1690q111 182 190 209q18 8 38.5 7.5t40 -6t44 -16.5t44.5 -22t46.5 -24t47.5 -21q40 -16 94 25q22 19 44 47q69 -28 99 -75q-166 -214 -241 -209q-12 1 -26.5 4t-32 9t-29.5 10.5t-34 13.5t-31 12q-95 39 -112 35q-33 -13 -81 -72q-80 33 -101 73zM66 1497
q299 25 478 31q13 1 36 1q30 0 41 -3q19 -68 107 -230q94 -169 101 -186q5 -16 31.5 -46t44.5 -30q31 0 51 21q22 23 27 35q27 49 102 201.5t123 230.5q80 7 162 7h20q236 -3 336 -32q-89 -128 -293 -460.5t-296 -469.5q-1 -55 -17 -553q-58 -12 -135.5 -16.5t-125.5 -4
t-148.5 4t-122.5 4.5q0 218 -13 584q-117 135 -295 448q-174 315 -214 463z" />
    <glyph glyph-name="uni1EFA" unicode="&#x1efa;" horiz-adv-x="0" 
 />
    <glyph glyph-name="uni2000" unicode="&#x2000;" horiz-adv-x="1189" 
 />
    <glyph glyph-name="uni2001" unicode="&#x2001;" horiz-adv-x="2379" 
 />
    <glyph glyph-name="uni2002" unicode="&#x2002;" horiz-adv-x="1189" 
 />
    <glyph glyph-name="uni2003" unicode="&#x2003;" horiz-adv-x="2379" 
 />
    <glyph glyph-name="uni2004" unicode="&#x2004;" horiz-adv-x="793" 
 />
    <glyph glyph-name="uni2005" unicode="&#x2005;" horiz-adv-x="594" 
 />
    <glyph glyph-name="uni2006" unicode="&#x2006;" horiz-adv-x="396" 
 />
    <glyph glyph-name="uni2007" unicode="&#x2007;" horiz-adv-x="396" 
 />
    <glyph glyph-name="uni2008" unicode="&#x2008;" horiz-adv-x="297" 
 />
    <glyph glyph-name="uni2009" unicode="&#x2009;" horiz-adv-x="475" 
 />
    <glyph glyph-name="uni200A" unicode="&#x200a;" horiz-adv-x="132" 
 />
    <glyph glyph-name="uni2010" unicode="&#x2010;" horiz-adv-x="819" 
d="M127 979q44 6 122 9q79 3 165 6t163 0q79 -3 119 -9q11 -104 12 -223q2 -142 -6 -217q-145 -19 -291 -20q-149 -1 -288 -27q-18 138 -14.5 264.5t18.5 216.5z" />
    <glyph glyph-name="uni2011" unicode="&#x2011;" horiz-adv-x="819" 
d="M127 979q44 6 122 9q79 3 165 6t163 0q79 -3 119 -9q11 -104 12 -223q2 -142 -6 -217q-145 -19 -291 -20q-149 -1 -288 -27q-18 138 -14.5 264.5t18.5 216.5z" />
    <glyph glyph-name="figuredash" unicode="&#x2012;" horiz-adv-x="819" 
d="M127 979q44 6 122 9q79 3 165 6t163 0q79 -3 119 -9q11 -104 12 -223q2 -142 -6 -217q-145 -19 -291 -20q-149 -1 -288 -27q-18 138 -14.5 264.5t18.5 216.5z" />
    <glyph glyph-name="endash" unicode="&#x2013;" horiz-adv-x="1126" 
d="M139 979q139 11 429 13.5t423 -7.5q14 -88 19 -223q5 -148 -6 -217q-108 -8 -411.5 -18t-459.5 -29q-25 132 -21 264.5t27 216.5z" />
    </font>
</defs>
</svg>
